<?xml version="1.0" standalone="no"?>
<!DOCTYPE svg PUBLIC "-//W3C//DTD SVG 1.1//EN" "http://www.w3.org/Graphics/SVG/1.1/DTD/svg11.dtd" >
<svg xmlns="http://www.w3.org/2000/svg">
<metadata>Generated by IcoMoon</metadata>
<defs>
<font id="icomoon" horiz-adv-x="1024">
<font-face units-per-em="1024" ascent="960" descent="-64" />
<missing-glyph horiz-adv-x="1024" />
<glyph unicode="&#x20;" horiz-adv-x="512" d="" />
<glyph unicode="&#xe900;" glyph-name="home" d="M1024 369.556l-512 397.426-512-397.428v162.038l512 397.426 512-397.428zM896 384v-384h-256v256h-256v-256h-256v384l384 288z" />
<glyph unicode="&#xe901;" glyph-name="sort-asc" horiz-adv-x="585" d="M585.143 548.571c0-20-16.571-36.571-36.571-36.571h-512c-20 0-36.571 16.571-36.571 36.571 0 9.714 4 18.857 10.857 25.714l256 256c6.857 6.857 16 10.857 25.714 10.857s18.857-4 25.714-10.857l256-256c6.857-6.857 10.857-16 10.857-25.714z" />
<glyph unicode="&#xe902;" glyph-name="arrow-down" d="M950.856 301.715c-20.199 0-36.572-16.374-36.572-36.572v-219.428c0-20.199-16.374-36.572-36.572-36.572h-731.425c-20.199 0-36.572 16.374-36.572 36.572v219.428c0 20.199-16.374 36.572-36.572 36.572s-36.572-16.374-36.572-36.572v-219.428c0-60.594 49.121-109.714 109.714-109.714h731.429c60.594 0 109.714 49.121 109.714 109.714v219.428c0 20.199-16.374 36.572-36.572 36.572zM719.886 327.57c-14.173 13.686-36.641 13.686-50.811 0l-120.503-120.428v716.286c0 20.199-16.374 36.572-36.572 36.572s-36.572-16.374-36.572-36.572v-716.288l-120.431 120.431c-14.529 14.031-37.68 13.629-51.711-0.898-13.689-14.173-13.689-36.641 0-50.814l182.856-182.856c14.265-14.299 37.421-14.329 51.72-0.066 0.021 0.021 0.043 0.043 0.066 0.066l182.856 182.856c14.034 14.529 13.631 37.68-0.898 51.711z" />
<glyph unicode="&#xe903;" glyph-name="arrow-left" d="M331.295 447.762l444.985 444.985c15.384 15.386 15.384 40.33 0 55.716-15.388 15.381-40.33 15.381-55.716 0l-472.843-472.843c-15.381-15.386-15.381-40.33 0-55.716l472.843-472.843c15.654-15.118 40.598-14.684 55.716 0.97 14.746 15.27 14.746 39.478 0 54.746l-444.985 444.985z" />
<glyph unicode="&#xe904;" glyph-name="cancel" d="M588.221 447.999l419.995 419.995c21.046 21.048 21.046 55.172 0 76.218-21.048 21.048-55.174 21.048-76.22 0l-419.997-419.995-419.995 419.995c-21.048 21.048-55.172 21.048-76.218 0s-21.048-55.172 0-76.218l419.995-419.995-419.995-419.995c-21.048-21.048-21.048-55.172 0-76.218 21.048-21.048 55.172-21.046 76.218 0l419.995 419.995 419.993-419.995c21.048-21.048 55.174-21.046 76.22 0 21.046 21.048 21.046 55.172 0 76.218l-419.991 419.995z" />
<glyph unicode="&#xe905;" glyph-name="check" d="M1009.004 809.008c-19.994 19.996-52.41 19.996-72.408 0l-613.408-613.414-235.784 235.784c-19.994 19.996-52.41 19.994-72.408 0-19.996-19.994-19.996-52.41 0-72.406l271.988-271.984c19.988-19.994 52.428-19.98 72.408 0l649.612 649.612c19.996 19.994 19.994 52.412 0 72.408z" />
<glyph unicode="&#xe906;" glyph-name="cloud-computing-1" d="M800.118 75.456h-219.698v221.999h72.605c18.413 0 29.293 20.924 18.413 35.989l-141.234 195.426c-8.997 12.554-27.619 12.554-36.616 0l-141.234-195.426c-10.88-15.065-0.209-35.989 18.413-35.989h72.605v-221.999h-246.061c-109.849 6.068-197.309 108.803-197.309 220.116 0 76.79 41.638 143.745 103.362 179.943-5.649 15.274-8.579 31.595-8.579 48.752 0 78.463 63.398 141.862 141.862 141.862 16.948 0 33.268-2.929 48.543-8.579 45.404 96.248 143.327 162.995 257.151 162.995 147.302-0.209 268.659-112.987 282.468-256.732 113.197-19.459 199.192-124.286 199.192-242.923 0-126.797-98.759-236.646-223.882-245.434z" />
<glyph unicode="&#xe907;" glyph-name="cloud-computing" d="M853.177 583.593c-47.327 188.535-238.528 303.007-427.063 255.68-147.336-36.986-254.318-164.326-265.341-315.831-104.615-17.252-175.437-116.043-158.185-220.658 15.336-93.004 95.924-161.114 190.181-160.74h159.983v63.993h-159.983c-70.684 0-127.986 57.302-127.986 127.986s57.302 127.986 127.986 127.986c17.672 0 31.997 14.324 31.997 31.997-0.16 159.041 128.64 288.098 287.681 288.256 137.673 0.138 256.186-97.191 282.817-232.263 2.63-13.487 13.575-23.789 27.197-25.597 87.474-12.457 148.286-93.466 135.831-180.938-11.185-78.547-78.249-137.031-157.589-137.427h-127.986v-63.993h127.986c123.698 0.374 223.672 100.955 223.296 224.653-0.312 102.969-70.792 192.461-170.821 216.896zM490.016 452.727l-127.986-127.986 45.115-45.115 73.592 73.272v-306.846h63.993v306.846l73.272-73.272 45.115 45.115-127.986 127.986c-12.481 12.407-32.634 12.407-45.115 0z" />
<glyph unicode="&#xe908;" glyph-name="pencil" d="M864 960c88.364 0 160-71.634 160-160 0-36.020-11.91-69.258-32-96l-64-64-224 224 64 64c26.742 20.090 59.978 32 96 32zM64 224l-64-288 288 64 592 592-224 224-592-592zM715.578 596.422l-448-448-55.156 55.156 448 448 55.156-55.156z" />
<glyph unicode="&#xe909;" glyph-name="sort-desc" horiz-adv-x="585" d="M585.143 329.143c0-9.714-4-18.857-10.857-25.714l-256-256c-6.857-6.857-16-10.857-25.714-10.857s-18.857 4-25.714 10.857l-256 256c-6.857 6.857-10.857 16-10.857 25.714 0 20 16.571 36.571 36.571 36.571h512c20 0 36.571-16.571 36.571-36.571z" />
<glyph unicode="&#xe90a;" glyph-name="ellipsis" d="M640 448c0-70.695-57.305-128-128-128s-128 57.305-128 128 57.305 128 128 128 128-57.305 128-128zM640 832c0-70.695-57.305-128-128-128s-128 57.305-128 128 57.305 128 128 128 128-57.305 128-128zM640 64c0-70.695-57.305-128-128-128s-128 57.305-128 128 57.305 128 128 128 128-57.305 128-128z" />
<glyph unicode="&#xe90b;" glyph-name="sort" horiz-adv-x="585" d="M585.143 329.143c0-9.714-4-18.857-10.857-25.714l-256-256c-6.857-6.857-16-10.857-25.714-10.857s-18.857 4-25.714 10.857l-256 256c-6.857 6.857-10.857 16-10.857 25.714 0 20 16.571 36.571 36.571 36.571h512c20 0 36.571-16.571 36.571-36.571zM585.143 548.571c0-20-16.571-36.571-36.571-36.571h-512c-20 0-36.571 16.571-36.571 36.571 0 9.714 4 18.857 10.857 25.714l256 256c6.857 6.857 16 10.857 25.714 10.857s18.857-4 25.714-10.857l256-256c6.857-6.857 10.857-16 10.857-25.714z" />
<glyph unicode="&#xe90c;" glyph-name="dropdown" d="M522.368 263.936l-7.296-7.296-301.739 301.696 60.331 60.331 248.704-248.704 248.704 248.704 60.331-60.331-301.739-301.696z" />
<glyph unicode="&#xe910;" glyph-name="more-yo" d="M512 686.933c75.281 0 136.533 61.252 136.533 136.533s-61.252 136.533-136.533 136.533-136.533-61.252-136.533-136.533 61.252-136.533 136.533-136.533zM512 925.867c56.474 0 102.4-45.926 102.4-102.4s-45.926-102.4-102.4-102.4-102.4 45.926-102.4 102.4 45.926 102.4 102.4 102.4zM512 209.067c-75.281 0-136.533-61.252-136.533-136.533s61.252-136.533 136.533-136.533 136.533 61.252 136.533 136.533-61.252 136.533-136.533 136.533zM512-29.867c-56.474 0-102.4 45.926-102.4 102.4s45.926 102.4 102.4 102.4 102.4-45.926 102.4-102.4-45.926-102.4-102.4-102.4zM512 584.533c-75.281 0-136.533-61.252-136.533-136.533s61.252-136.533 136.533-136.533 136.533 61.252 136.533 136.533-61.252 136.533-136.533 136.533zM512 345.6c-56.474 0-102.4 45.926-102.4 102.4s45.926 102.4 102.4 102.4 102.4-45.926 102.4-102.4-45.926-102.4-102.4-102.4z" />
<glyph unicode="&#xe911;" glyph-name="more" d="M204.801 448.001c0-56.554-45.846-102.401-102.401-102.401s-102.401 45.846-102.401 102.401c0 56.554 45.846 102.401 102.401 102.401s102.401-45.846 102.401-102.401zM614.4 448.001c0-56.554-45.846-102.401-102.401-102.401s-102.401 45.846-102.401 102.401c0 56.554 45.846 102.401 102.401 102.401s102.401-45.846 102.401-102.401zM1024 448.001c0-56.554-45.846-102.401-102.401-102.401s-102.401 45.846-102.401 102.401c0 56.554 45.846 102.401 102.401 102.401s102.401-45.846 102.401-102.401z" />
<glyph unicode="&#xe912;" glyph-name="next" d="M776.847 476.1l-473.63 472.32c-15.518 15.466-40.642 15.44-56.134-0.080-15.48-15.518-15.44-40.656 0.080-56.134l445.438-444.208-445.454-444.206c-15.518-15.48-15.558-40.602-0.080-56.122 7.766-7.78 17.94-11.67 28.114-11.67 10.148 0 20.282 3.864 28.034 11.59l473.632 472.308c7.474 7.436 11.668 17.556 11.668 28.1s-4.206 20.652-11.668 28.102z" />
<glyph unicode="&#xe913;" glyph-name="plus" d="M984 488h-432v432c0 22.092-17.908 40-40 40s-40-17.908-40-40v-432h-432c-22.092 0-40-17.908-40-40s17.908-40 40-40h432v-432c0-22.092 17.908-40 40-40s40 17.908 40 40v432h432c22.092 0 40 17.908 40 40s-17.908 40-40 40z" />
<glyph unicode="&#xe914;" glyph-name="refresh" d="M877.714 960c-20.199 0-36.572-16.374-36.572-36.572v-133.594c-188.284 182.286-488.689 177.422-670.975-10.86-85.907-88.734-133.832-207.467-133.594-330.973 0-20.199 16.374-36.572 36.572-36.572s36.57 16.374 36.57 36.572c0.045 222.176 180.188 402.25 402.366 402.205 112.836-0.021 220.474-47.432 296.661-130.663l-162.011-54.015c-19.187-6.384-29.569-27.111-23.186-46.299s27.111-29.569 46.299-23.186l219.428 73.142c14.979 4.989 25.065 19.029 25.016 34.815v219.428c-0.002 20.196-16.376 36.57-36.574 36.57zM950.856 484.571c-20.199 0-36.572-16.374-36.572-36.572-0.045-222.176-180.188-402.25-402.366-402.205-112.836 0.021-220.474 47.432-296.661 130.663l162.011 54.015c19.187 6.384 29.569 27.111 23.186 46.299s-27.111 29.569-46.299 23.186l-219.428-73.142c-14.979-4.989-25.065-19.029-25.016-34.815v-219.428c0-20.199 16.374-36.572 36.572-36.572s36.572 16.374 36.572 36.572v133.596c188.284-182.286 488.691-177.424 670.975 10.86 85.907 88.734 133.832 207.467 133.594 330.973 0.004 20.199-16.369 36.572-36.568 36.572z" />
<glyph unicode="&#xe915;" d="M512 960c-282.328 0-512-229.672-512-512s229.672-512 512-512 512 229.672 512 512-229.672 512-512 512z" />
<glyph unicode="&#xe916;" d="M700.547 319.789c16.68-16.688 16.68-43.648 0-60.336-8.32-8.32-19.242-12.5-30.172-12.5-10.922 0-21.844 4.18-30.164 12.5l-128.211 128.219-128.211-128.219c-8.32-8.32-19.242-12.5-30.164-12.5-10.93 0-21.852 4.18-30.172 12.5-16.68 16.688-16.68 43.648 0 60.336l128.219 128.211-128.219 128.211c-16.68 16.688-16.68 43.648 0 60.336 16.688 16.68 43.648 16.68 60.336 0l128.211-128.219 128.211 128.219c16.688 16.68 43.648 16.68 60.336 0 16.68-16.688 16.68-43.648 0-60.336l-128.219-128.211z" />
<glyph unicode="&#xe917;" glyph-name="rotate" d="M474.161 922.174c187.019 0 352.049-107.915 428.912-271.507l53.487 111.009 67.454-32.492-111.035-230.473-230.485 111.035 32.505 67.454 120.062-57.828c-64.856 137.377-203.634 227.913-360.898 227.913-220.16 0-399.297-179.112-399.297-399.285s179.138-399.297 399.297-399.297c129.649 0 251.697 63.341 326.535 169.423l61.177-43.174c-88.856-125.944-233.77-201.126-387.711-201.126-261.449-0.013-474.161 212.712-474.161 474.174s212.712 474.174 474.161 474.174z" />
<glyph unicode="&#xe918;" glyph-name="scale-out" d="M484.855 439.131c0 0 0 0 0 0l-198.081-0.538c-14.782 0-26.877-12.094-26.877-26.877s12.094-26.877 26.877-26.877l133.039 0.269-402.612-402.343c-10.482-10.482-10.482-27.414 0-37.896s27.414-10.482 37.896 0l402.612 402.343-0.269-133.039c0-14.782 12.094-26.877 26.877-26.877s26.877 12.094 26.877 26.877l0.538 198.081c0 0 0 0 0 0 0 14.782-12.094 26.877-26.877 26.877zM539.414 457.676c0 0 0 0 0 0l198.081 0.538c14.782 0 26.877 12.094 26.877 26.877s-12.094 26.877-26.877 26.877l-133.039-0.269 402.612 402.343c10.482 10.482 10.482 27.414 0 37.896-10.482 10.751-27.683 10.751-38.165 0.269l-402.343-402.612 0.269 133.039c0 14.782-12.094 26.877-26.877 26.877s-26.877-12.094-26.877-26.877l-0.538-198.081c0 0 0 0 0 0 0-14.782 12.094-26.877 26.877-26.877z" />
<glyph unicode="&#xe919;" glyph-name="dropdown-fill" d="M567.936 228.672c-11.147-19.769-32.008-32.901-55.936-32.901s-44.789 13.132-55.77 32.581l-0.166 0.319-211.2 380.224c-5.076 8.963-8.067 19.684-8.067 31.104 0 35.346 28.654 64 64 64 0.001 0 0.002 0 0.003 0h422.4c0.020 0 0.043 0 0.067 0 35.346 0 64-28.654 64-64 0-11.42-2.991-22.141-8.233-31.423l0.166 0.319z" />
<glyph unicode="&#xe91a;" glyph-name="undo" d="M285.432 373.706l-188 215.204 188 215.204c15.192 17.41 13.42 43.848-3.99 59.054-17.41 15.192-43.834 13.406-59.054-3.99l-212.050-242.742c-13.784-15.764-13.784-39.3 0-55.064l212.052-242.744c8.286-9.458 19.88-14.314 31.542-14.314 9.766 0 19.572 3.404 27.51 10.338 17.412 15.206 19.196 41.644 3.99 59.054zM719.86 630.762h-678.008c-23.116 0-41.852-18.734-41.852-41.852 0-23.116 18.736-41.852 41.852-41.852h678.008c121.552 0 220.436-98.882 220.436-220.422s-98.884-220.422-220.436-220.422h-622.204c-23.116 0-41.852-18.736-41.852-41.852s18.736-41.852 41.852-41.852h622.204c167.688 0 304.14 136.438 304.14 304.126s-136.438 304.126-304.14 304.126z" />
<glyph unicode="&#xe91b;" glyph-name="upload-cloud" d="M832.803 674.046c-10.95 65.066-43.167 124.447-92.44 169.509-54.748 50.116-125.921 77.7-200.041 77.7-57.275 0-113.076-16.424-160.875-47.378-39.798-25.689-72.857-60.433-96.23-101.284-10.107 1.895-20.636 2.948-31.164 2.948-89.492 0-162.349-72.857-162.349-162.349 0-11.581 1.263-22.742 3.369-33.691-57.907-42.114-93.072-109.917-93.072-182.143 0-58.328 21.689-114.971 61.276-159.822 40.64-45.904 94.335-73.068 151.61-76.226 0.632 0 1.053 0 1.685 0h181.090c15.793 0 28.427 12.634 28.427 28.427s-12.634 28.427-28.427 28.427h-180.248c-86.123 5.264-158.559 87.176-158.559 179.405 0 59.591 32.007 115.182 83.596 145.293 12.002 6.949 17.056 21.478 12.424 34.533-4.211 11.371-6.317 23.373-6.317 36.218 0 58.117 47.378 105.495 105.495 105.495 12.424 0 24.637-2.106 36.007-6.317 13.898-5.054 29.269 1.263 35.586 14.529 39.377 83.596 124.447 137.502 216.887 137.502 124.236 0 226.783-93.072 238.575-216.466 1.263-12.845 10.95-23.163 23.584-25.268 93.703-16.003 164.455-102.547 164.455-201.305 0-104.653-82.333-195.619-183.827-203.41h-155.19c-15.793 0-28.427-12.634-28.427-28.427s12.634-28.427 28.427-28.427h156.243c0.632 0 1.263 0 2.106 0 64.224 4.633 124.236 34.112 168.877 83.386 44.43 48.852 68.646 111.602 68.646 176.878-0.211 118.13-80.859 223.204-191.197 252.262zM682.667 370.405c11.16 11.16 11.16 29.059 0 40.219l-150.557 150.557c-5.264 5.264-12.634 8.423-20.004 8.423s-14.74-2.948-20.004-8.423l-150.557-150.557c-11.16-11.16-11.16-29.059 0-40.219 5.475-5.475 12.845-8.423 20.004-8.423s14.529 2.737 20.004 8.423l102.126 102.126v-469.36c0-15.793 12.634-28.427 28.427-28.427s28.427 12.634 28.427 28.427v469.36l102.126-102.126c10.95-11.16 28.848-11.16 40.008 0z" />
<glyph unicode="&#xe91c;" glyph-name="upload" d="M944 334.716v-278c0-22.056-17.944-40-40-40h-784c-22.056 0-40 17.944-40 40v278h-80v-278c0-66.168 53.832-120 120-120h784c66.168 0 120 53.832 120 120v278h-80zM512 959.284l-248.568-248.568 56.568-56.568 152 152v-623.432h80v623.432l152-152 56.568 56.568z" />
<glyph unicode="&#xe91d;" glyph-name="copy" d="M704-64h-554.667c-58.795 0-106.667 47.872-106.667 106.667v597.333c0 58.795 47.872 106.667 106.667 106.667h42.667c11.776 0 21.333-9.557 21.333-21.333s-9.557-21.333-21.333-21.333h-42.667c-35.285 0-64-28.715-64-64v-597.333c0-35.285 28.715-64 64-64h554.667c35.285 0 64 28.715 64 64v42.667c0 11.776 9.557 21.333 21.333 21.333s21.333-9.557 21.333-21.333v-42.667c0-58.795-47.872-106.667-106.667-106.667zM874.667 192h-469.333c-58.795 0-106.667 47.872-106.667 106.667v554.667c0 58.795 47.872 106.667 106.667 106.667h469.333c58.795 0 106.667-47.872 106.667-106.667v-554.667c0-58.795-47.872-106.667-106.667-106.667zM405.333 917.333c-35.285 0-64-28.715-64-64v-554.667c0-35.285 28.715-64 64-64h469.333c35.285 0 64 28.715 64 64v554.667c0 35.285-28.715 64-64 64z" />
<glyph unicode="&#xe91e;" glyph-name="search" d="M1014.294-8.29l-264.38 260.155c69.233 75.219 111.771 174.698 111.771 284.164-0.033 234.168-192.91 423.971-430.854 423.971s-430.821-189.803-430.821-423.971 192.877-423.971 430.821-423.971c102.808 0 197.102 35.56 271.168 94.678l265.406-261.181c12.932-12.74 33.927-12.74 46.859 0 12.962 12.738 12.962 33.415 0.030 46.155zM430.831 177.289c-201.326 0-364.533 160.613-364.533 358.74s163.207 358.74 364.533 358.74c201.328 0 364.533-160.613 364.533-358.74s-163.205-358.74-364.533-358.74z" />
<glyph unicode="&#xe91f;" glyph-name="back" d="M512 960c-282.77 0-512-229.23-512-512s229.23-512 512-512 512 229.23 512 512-229.23 512-512 512zM512 0c-247.424 0-448 200.576-448 448s200.576 448 448 448 448-200.576 448-448-200.576-448-448-448zM585.28 726.4l-256-256c-12.408-12.482-12.408-32.638 0-45.12l256-256 45.12 45.44-233.28 233.28 233.28 233.28-45.12 45.12z" />
<glyph unicode="&#xe920;" glyph-name="backward" d="M1002.6 21.4c1.8 0 3.6 0.2 5.2 0.6 9.4 2.4 16 10.8 16 20.6v18.4c0 0 0 0 0 0 0 330-267.6 598.6-597.4 600.4v192c0 8.6-5 16.2-12.8 19.6-8 3.4-16.8 1.8-23.2-4l-383.8-362.8c-4.2-4-6.6-9.6-6.6-15.4s2.4-11.4 6.6-15.4l384-362.6c6.2-5.8 15.2-7.6 23.2-4 7.8 3.4 12.8 11 12.8 19.6v192h69.4c202.8 0 389.8-110.2 487.8-287.6 4-7.2 11.2-11.4 18.8-11.4zM423.6 618.6c287.6 0 525-218.8 554.6-498.6-112.2 151.4-290.6 242.6-482.2 242.6h-90.8c-11.8 0-21.4-9.6-21.4-21.4v-163.8l-331.4 313.2 331.6 313.2v-163.8c0-11.8 9.6-21.4 21.4-21.4h18.2z" />
<glyph unicode="&#xe921;" glyph-name="forward" d="M21.376 21.376c-1.749 0-3.541 0.213-5.291 0.683-9.429 2.432-16 10.88-16.043 20.608l-0.043 18.304s0 0 0 0.043c0 330.027 267.691 598.656 597.333 600.32v192c0 8.533 5.077 16.213 12.885 19.584 7.936 3.456 16.896 1.792 23.125-4.096l384-362.667c4.224-4.011 6.656-9.6 6.656-15.488s-2.432-11.477-6.656-15.488l-384-362.667c-6.229-5.888-15.147-7.552-23.125-4.096-7.808 3.371-12.885 11.051-12.885 19.584v192h-69.419c-202.752 0-389.717-110.208-487.893-287.616-3.797-6.869-11.008-11.008-18.645-11.008zM600.32 618.667c-287.573 0-525.013-218.837-554.581-498.688 112.299 151.339 290.688 242.688 482.176 242.688h90.752c11.776 0 21.333-9.557 21.333-21.333v-163.84l331.563 313.173-331.563 313.173v-163.84c0-11.776-9.557-21.333-21.333-21.333z" />
<glyph unicode="&#xe922;" glyph-name="backward-o" d="M992.291 273.071c-69.197 233.534-279.565 396.845-522.996 408.278v171.076c0 17.236-10.367 32.807-26.323 39.42-15.956 6.655-34.3 2.944-46.501-9.257l-383.96-383.96c-16.68-16.68-16.68-43.643 0-60.324l383.96-383.96c12.201-12.201 30.547-15.912 46.501-9.257 15.956 6.569 26.323 22.184 26.323 39.42v219.537c82.849 8.405 306.358-0.086 475.301-284.045 7.509-12.671 20.904-19.112 35.068-19.112 4.31 0 8.617 0.598 12.927 1.75 18.472 5.077 31.357 23.892 31.357 43.090 0.896 77.088-9.771 153.582-31.657 227.344z" />
<glyph unicode="&#xe923;" glyph-name="forward-o" d="M1011.497 499.469l-383.776 383.776c-12.195 12.153-30.488 15.864-46.479 9.253-15.947-6.567-26.31-22.175-26.31-39.402v-170.738c-245.361-10.063-459.421-175.727-527.99-413.113-29.679-102.938-27.376-186.558-26.524-218.071l0.171-8.272c0-19.189 12.834-36.033 31.298-41.107 3.796-1.024 7.589-1.535 11.343-1.535 14.754 0 28.825 7.718 36.629 20.809 168.903 283.909 392.687 291.969 475.073 283.951v-219.478c0-17.227 10.363-32.835 26.31-39.402 15.991-6.652 34.284-2.942 46.479 9.253l383.776 383.776c16.672 16.678 16.672 43.629 0 60.3z" />
<glyph unicode="&#xe924;" glyph-name="lock" d="M837.138 567.466h-103.274v170.666c0.002 122.336-99.532 221.868-221.866 221.868s-221.866-99.532-221.866-221.866v-170.666h-103.268c-27.75 0-50.33-22.58-50.33-50.33v-461.602c0-0.022-0.004-0.044-0.004-0.068s0.004-0.044 0.004-0.068v-69.070c0-27.75 22.58-50.33 50.33-50.33h650.274c27.75 0 50.33 22.58 50.33 50.33v530.808c0 27.75-22.578 50.328-50.33 50.328zM324.266 738.134c0 103.51 84.224 187.734 187.734 187.734s187.734-84.224 187.734-187.734v-170.666h-34.134v170.666c0 84.684-68.916 153.6-153.6 153.6s-153.6-68.916-153.6-153.6v-170.666h-34.134v170.666zM392.532 567.466v170.666c0 65.878 53.59 119.466 119.466 119.466s119.466-53.59 119.466-119.466v-170.666h-238.932zM186.864 533.334h650.272c8.926 0 16.196-7.27 16.196-16.196v-444.604h-682.664v444.604c0 8.924 7.27 16.196 16.196 16.196zM837.138-29.866h-650.274c-8.926 0-16.196 7.27-16.196 16.196v52.070h682.666v-52.070c0.002-8.926-7.27-16.196-16.196-16.196zM456.444 298.086l-29.286-119.074c-1.246-5.102-0.086-10.478 3.14-14.61 3.226-4.13 8.192-6.536 13.432-6.536h136.534c5.24 0 10.206 2.406 13.432 6.536 3.242 4.13 4.404 9.506 3.14 14.61l-29.286 119.074c18.842 16.11 29.782 39.458 29.782 64.58 0 47.052-38.28 85.334-85.334 85.334-47.052 0-85.334-38.28-85.334-85.334 0-25.122 10.94-48.468 29.78-64.58zM511.996 413.866c28.228 0 51.2-22.972 51.2-51.2 0-17.562-8.978-33.706-24.030-43.196-6.212-3.926-9.216-11.384-7.476-18.518l26.796-108.952h-92.98l26.794 108.954c1.74 7.134-1.262 14.592-7.476 18.518-15.052 9.49-24.030 25.634-24.030 43.196 0.002 28.226 22.974 51.198 51.202 51.198z" />
<glyph unicode="&#xe925;" glyph-name="padlock" d="M768 533.334h-512c-58.838 0-106.666-47.872-106.666-106.666v-384c0-58.796 47.828-106.668 106.666-106.668h512c58.838 0 106.666 47.872 106.666 106.666v384c0 58.796-47.828 106.668-106.666 106.668zM832 42.666c0-35.286-28.714-64-64-64h-512c-35.286 0-64 28.714-64 64v384c0 35.286 28.714 64 64 64h512c35.286 0 64-28.714 64-64v-384zM512 960c-152.918 0-277.334-124.416-277.334-277.334v-170.666c0-11.776 9.558-21.334 21.334-21.334h512c11.776 0 21.334 9.558 21.334 21.334v170.666c0 152.918-124.416 277.334-277.334 277.334zM746.666 533.334h-469.332v149.334c0 129.408 105.302 234.666 234.666 234.666s234.666-105.258 234.666-234.666v-149.334zM512 234.666c-11.776 0-21.334-9.558-21.334-21.334v-128c0-11.776 9.558-21.334 21.334-21.334s21.334 9.558 21.334 21.334v128c0 11.778-9.558 21.334-21.334 21.334zM512 405.334c-58.838 0-106.666-47.872-106.666-106.666s47.828-106.668 106.666-106.668c58.838 0 106.666 47.872 106.666 106.666s-47.828 106.668-106.666 106.668zM512 234.666c-35.286 0-64 28.714-64 64s28.714 64 64 64c35.286 0 64-28.714 64-64 0-35.284-28.714-64-64-64z" />
<glyph unicode="&#xe926;" glyph-name="padunlock" d="M768 533.334h-512c-58.838 0-106.666-47.872-106.666-106.666v-384c0-58.796 47.828-106.668 106.666-106.668h512c58.838 0 106.666 47.872 106.666 106.666v384c0 58.796-47.828 106.668-106.666 106.668zM832 42.666c0-35.286-28.714-64-64-64h-512c-35.286 0-64 28.714-64 64v384c0 35.286 28.714 64 64 64h512c35.286 0 64-28.714 64-64v-384zM768 533.334h-490.666v149.334c0 129.408 105.302 234.666 234.666 234.666s234.666-105.258 234.666-234.666c0-11.776 9.558-21.334 21.334-21.334s21.334 9.558 21.334 21.334c0 152.916-124.416 277.332-277.334 277.332s-277.334-124.416-277.334-277.334v-170.666c0-11.776 9.558-21.334 21.334-21.334h512c11.776 0 21.334 9.558 21.334 21.334s-9.558 21.334-21.334 21.334zM512 234.666c-11.776 0-21.334-9.558-21.334-21.334v-128c0-11.776 9.558-21.334 21.334-21.334s21.334 9.558 21.334 21.334v128c0 11.778-9.558 21.334-21.334 21.334zM512 405.334c-58.838 0-106.666-47.872-106.666-106.666s47.828-106.668 106.666-106.668c58.838 0 106.666 47.872 106.666 106.666s-47.828 106.668-106.666 106.668zM512 234.666c-35.286 0-64 28.714-64 64s28.714 64 64 64c35.286 0 64-28.714 64-64 0-35.284-28.714-64-64-64z" />
<glyph unicode="&#xe927;" glyph-name="unlock" d="M955.699 550.399h-648.471c-37.649 0-68.283-30.633-68.283-68.299v-477.79c0-37.665 30.617-68.299 68.283-68.299h648.471c37.649 0 68.283 30.633 68.283 68.299v477.788c0 37.665-30.617 68.301-68.283 68.301zM989.833 4.309c0-18.842-15.308-34.167-34.149-34.167h-648.471c-18.824 0-34.149 15.326-34.149 34.167v477.79c0 18.842 15.308 34.167 34.149 34.167h648.471c18.824 0 34.149-15.326 34.149-34.167v-477.79zM273.061 959.992c-150.559 0-273.061-122.504-273.061-273.063v-153.597c0-9.438 7.646-17.066 17.066-17.066h68.265c9.42 0 17.066 7.628 17.066 17.066v153.597c0 94.104 76.561 170.663 170.663 170.663s170.663-76.561 170.663-170.663v-153.597c0-9.438 7.646-17.066 17.066-17.066h68.265c9.42 0 17.066 7.628 17.066 17.066v153.597c0.006 150.559-122.498 273.063-273.057 273.063zM511.991 550.399h-34.133v136.532c0 112.928-91.868 204.796-204.796 204.796s-204.796-91.868-204.796-204.796v-136.532h-34.131v136.532c0 131.752 107.176 238.93 238.93 238.93s238.928-107.178 238.928-238.932v-136.53zM1006.932 106.673h-750.919c-9.42 0-17.066-7.628-17.066-17.066v-85.299c0-37.665 30.617-68.299 68.283-68.299h648.471c37.649 0 68.283 30.633 68.299 68.299v85.299c0 9.438-7.646 17.066-17.068 17.066zM989.833 4.309c0-18.842-15.308-34.167-34.149-34.167h-648.471c-18.824 0-34.149 15.326-34.149 34.167v68.231h716.769v-68.231zM684.498 429.535c-20.532 16.282-47.239 22.152-73.249 16.146-30.531-7.1-55.073-31.351-62.531-61.797-8.346-34.065 4.25-68.675 31.539-89.138v-68.607c0-28.228 22.972-51.199 51.199-51.199s51.199 22.972 51.199 51.199v68.641c21.264 16.024 34.131 41.231 34.131 67.907 0 26.18-11.776 50.549-32.289 66.849zM657.004 318.621c-5.256-3.054-8.482-8.686-8.482-14.746v-77.737c0-9.42-7.662-17.066-17.066-17.066s-17.066 7.646-17.066 17.066v77.737c0 6.076-3.226 11.69-8.482 14.746-20.224 11.776-29.661 34.201-24.046 57.139 4.37 17.784 19.268 32.511 37.101 36.659 4.232 0.99 8.448 1.468 12.596 1.468 11.554 0 22.51-3.788 31.709-11.094 12.322-9.796 19.388-24.406 19.388-40.123-0.004-18.23-9.594-34.697-25.654-44.049z" />
<glyph unicode="&#xe929;" glyph-name="comment" d="M640 512c0 88.384-93.088 160-208 160s-208-71.616-208-160c0.6-35.81 14.982-68.148 38.054-92.039l-0.038 0.039c-9.843-20.815-21.811-38.731-36.001-54.62l0.193 0.22c-1.356-1.421-2.191-3.35-2.191-5.475 0-1.169 0.253-2.28 0.707-3.279l-0.020 0.050c1.219-2.844 3.994-4.8 7.227-4.8 0.024 0 0.049 0 0.073 0h-0.004c32.798 0.329 63.369 9.579 89.486 25.433l-0.782-0.441c32.214-15.831 70.116-25.090 110.18-25.090 0.392 0 0.785 0.001 1.177 0.003h-0.061c114.912 0 208 71.584 208 160zM762.016 292c23.039 23.846 37.414 56.191 37.983 91.889l0.001 0.111c0 66.912-53.504 124.192-129.312 148.096 0.835-5.92 1.313-12.758 1.313-19.707 0-0.137 0-0.273-0.001-0.41v0.021c0-105.888-107.712-192-240-192-11.262 0.075-22.274 0.759-33.11 2.020l1.398-0.132c39.161-59.451 105.613-98.148 181.103-98.148 3.731 0 7.441 0.095 11.126 0.281l-0.517-0.021c0.484-0.003 1.057-0.005 1.63-0.005 39.88 0 77.605 9.225 111.158 25.658l-1.493-0.66c25.335-15.413 55.906-24.663 88.612-24.991l0.092-0.001c0.014 0 0.031 0 0.048 0 3.238 0 6.019 1.955 7.228 4.749l0.020 0.051c0.427 0.947 0.675 2.052 0.675 3.216 0 2.126-0.83 4.059-2.183 5.492l0.004-0.004c-14.023 15.683-25.986 33.635-35.2 53.14l-0.576 1.356z" />
<glyph unicode="&#xe92c;" d="M512 768c-72.189 0-114.697-29.203-137.828-94.691-22.173-62.777-22.173-148.728-22.172-224.561v-7.316l-79.471-185.432h478.941l-79.471 185.432v7.315c0 75.834 0.001 161.785-22.172 224.562-23.131 65.487-65.638 94.691-137.828 94.691zM512 800c192.302 0 192-192.942 192-352l96-224h-576l96 224c0 159.058-0.302 352 192 352z" />
<glyph unicode="&#xe92d;" d="M576 128c0-35.346-28.654-64-64-64s-64 28.654-64 64c0 35.346 28.654 64 64 64s64-28.654 64-64z" />
<glyph unicode="&#xe92e;" glyph-name="home-icon" d="M428.8 94.4v249.6h166.4v-249.6h208v332.8h124.8l-416 374.4-416-374.4h124.8v-332.8z" />
<glyph unicode="&#xe92f;" glyph-name="like" d="M732.512 643.968c-60.8 51.904-133.216 26.112-189.024-31.552l-31.52-31.552-31.52 31.552c-55.68 57.696-128.256 83.456-189.056 31.552-69.664-59.552-93.824-187.808-31.456-252.384l220.544-220.8c8.615-6.703 19.587-10.746 31.504-10.746s22.889 4.043 31.62 10.833l-0.116-0.087 220.544 220.8c62.464 64.576 38.176 192.832-31.52 252.384z" />
<glyph unicode="&#xe930;" glyph-name="bell" d="M900.402 145.094c-3.010 1.954-25.664 17.824-48.348 65.834-41.658 88.164-50.402 212.36-50.402 301.022 0 0.386-0.008 0.768-0.022 1.152-0.454 117.178-70.62 218.19-171.028 263.512v69.314c0 62.9-51.088 114.072-113.884 114.072h-9.438c-62.796 0-113.884-51.172-113.884-114.072v-69.31c-100.744-45.468-171.050-146.996-171.050-264.668 0-88.662-8.744-212.856-50.402-301.022-22.682-48.008-45.336-63.878-48.348-65.834-12.684-5.87-18.938-19.43-16.020-33.172 2.946-13.878 15.918-23.446 30.084-23.446h219.894c1.228-84.282 70.016-152.476 154.446-152.476s153.218 68.194 154.446 152.476h219.894c14.164 0 27.138 9.568 30.084 23.446 2.914 13.742-3.338 27.304-16.022 33.172zM453.398 845.928c0 29.762 24.172 53.974 53.884 53.974h9.438c29.712 0 53.884-24.212 53.884-53.974v-49.834c-18.936 3.914-38.538 5.974-58.612 5.974-20.068 0-39.664-2.058-58.592-5.968v49.828zM512-3.902c-51.346 0-93.228 41.234-94.446 92.376h188.89c-1.216-51.14-43.098-92.376-94.444-92.376zM632.8 148.576c-0.006 0-426.77 0-426.77 0 5.19 8.088 10.472 17.246 15.722 27.596 40.208 79.286 60.596 192.258 60.596 335.778 0 126.834 103.018 230.020 229.642 230.020s229.642-103.186 229.642-230.12c0-0.37 0.006-0.738 0.020-1.106 0.114-142.944 20.5-255.51 60.596-334.572 5.25-10.352 10.534-19.508 15.722-27.596z" />
<glyph unicode="&#xe933;" glyph-name="share" d="M658.272 376c-0.066 0-0.145 0-0.224 0-25.803 0-49.537-8.857-68.329-23.697l0.233 0.177-117.12 72.064c1.652 7.044 2.6 15.131 2.6 23.44s-0.947 16.396-2.74 24.161l0.14-0.721 117.12 72.064c18.558-14.663 42.293-23.52 68.096-23.52 0.079 0 0.157 0 0.236 0h-0.012c0.277-0.003 0.603-0.004 0.931-0.004 59.82 0 108.364 48.277 108.797 107.995v0.041c-1.054 59.79-49.77 107.854-109.712 107.854s-108.659-48.065-109.711-107.756l-0.001-0.099c0-0.023 0-0.051 0-0.078 0-8.287 0.944-16.353 2.732-24.097l-0.14 0.719-117.12-72.064c-18.558 14.663-42.293 23.52-68.096 23.52-0.079 0-0.157 0-0.236 0h0.012c-59.647 0-108-48.353-108-108s48.353-108 108-108v0c0.066 0 0.145 0 0.224 0 25.803 0 49.537 8.857 68.329 23.697l-0.233-0.177 117.12-72.064c-1.648-7.025-2.592-15.091-2.592-23.378 0-0.028 0-0.055 0-0.083v0.004c-0.009-0.514-0.014-1.12-0.014-1.728 0-60.601 49.127-109.728 109.728-109.728s109.728 49.127 109.728 109.728c0 60.596-49.119 109.72-109.714 109.728h-0.001z" />
<glyph unicode="&#xe936;" glyph-name="call" d="M997.13 170.039l-207.261 138.219c-26.302 17.399-61.559 11.674-81.004-13.156l-60.373-77.624c-7.759-10.23-21.863-13.198-33.087-6.963l-11.484 6.331c-38.070 20.751-85.439 46.585-180.879 142.059s-121.326 142.879-142.077 180.879l-6.297 11.484c-6.321 11.222-3.409 25.386 6.825 33.207l77.572 60.355c24.82 19.447 30.553 54.694 13.174 81.004l-138.219 207.261c-17.811 26.792-53.546 34.835-81.12 18.259l-86.669-52.062c-27.232-16.010-47.211-41.938-55.748-72.351-31.209-113.715-7.731-309.97 281.37-599.105 229.974-229.956 401.178-291.797 518.853-291.797 27.082-0.116 54.058 3.407 80.202 10.476 30.419 8.527 56.352 28.508 72.351 55.748l52.114 86.617c16.6 27.58 8.561 63.337-18.243 81.158zM985.97 106.391l-51.994-86.669c-11.488-19.661-30.14-34.117-52.046-40.34-104.978-28.822-288.383-4.949-565.932 272.6s-301.419 460.938-272.598 565.932c6.231 21.933 20.705 40.608 40.39 52.114l86.669 51.994c11.964 7.199 27.474 3.709 35.203-7.917l138.102-207.243c7.547-11.412 5.067-26.708-5.699-35.153l-77.59-60.355c-23.612-18.055-30.355-50.724-15.818-76.653l6.161-11.194c21.809-39.998 48.923-89.757 147.912-188.73 98.989-98.971 148.732-126.087 188.712-147.894l11.21-6.177c25.926-14.536 58.597-7.795 76.653 15.818l60.355 77.59c8.447 10.76 23.736 13.238 35.153 5.699l207.243-138.219c11.634-7.723 15.124-23.241 7.915-35.203zM580.236 789.245c160.138-0.178 289.911-129.953 290.091-290.091 0-9.425 7.639-17.063 17.063-17.063s17.063 7.639 17.063 17.063c-0.198 178.979-145.238 324.022-324.218 324.218-9.425 0-17.063-7.639-17.063-17.063s7.639-17.063 17.063-17.063zM580.236 686.861c103.617-0.122 187.584-84.090 187.706-187.706 0-9.425 7.641-17.063 17.063-17.063 9.425 0 17.063 7.639 17.063 17.063-0.142 122.458-99.377 221.693-221.833 221.833-9.425 0-17.063-7.639-17.063-17.063s7.639-17.063 17.063-17.063zM580.236 584.476c47.097-0.056 85.263-38.222 85.321-85.321 0-9.425 7.641-17.063 17.063-17.063s17.063 7.639 17.063 17.063c-0.076 65.938-53.51 119.374-119.448 119.448-9.425 0-17.063-7.639-17.063-17.063s7.639-17.063 17.063-17.063z" />
<glyph unicode="&#xe93c;" glyph-name="chat" d="M889.11 577.718h-476c-8.284 0-15-6.716-15-15s6.716-15 15-15h476c8.284 0 15 6.716 15 15s-6.716 15-15 15zM889.11 463.052h-476c-8.284 0-15-6.716-15-15s6.716-15 15-15h476c8.284 0 15 6.716 15 15s-6.716 15-15 15zM889.11 348.386h-476c-8.284 0-15-6.716-15-15s6.716-15 15-15h476c8.284 0 15 6.716 15 15s-6.716 15-15 15zM936.756 708.902h-571.292c-48.106 0-87.244-39.136-87.244-87.244v-359.234c0-48.106 39.136-87.244 87.244-87.244h400.422c4.282 0 8.26-1.926 10.916-5.288l129.31-163.706c5.096-6.452 12.532-9.968 20.318-9.968 2.894 0 5.838 0.486 8.726 1.49 10.654 3.7 17.538 13.378 17.538 24.656v154.306c40.45 7.556 71.306 43.318 71.306 85.754v359.236c0 48.106-39.136 87.242-87.244 87.242zM994 262.424c0-31.154-25.346-56.824-56.5-57.22-8.208-0.106-14.808-6.79-14.808-15v-156.61l-122.348 154.894c-8.378 10.61-20.938 16.694-34.458 16.694h-400.422c-31.564 0-57.244 25.68-57.244 57.244v359.234c0 31.564 25.678 57.244 57.244 57.244h571.292c31.564 0 57.244-25.68 57.244-57.244zM220.988 460.878c-10.26-1.456-19.448-6.738-25.872-14.87l-103.042-130.452v130.742c0 8.21-6.6 14.894-14.808 15-26.062 0.332-47.266 21.806-47.266 47.87v312.722c0 26.406 21.484 47.89 47.89 47.89h497.326c26.406 0 47.89-21.484 47.89-47.89v-57.864c0-8.284 6.716-15 15-15s15 6.716 15 15v57.864c0 42.948-34.942 77.89-77.89 77.89h-497.326c-42.948 0-77.89-34.942-77.89-77.89v-312.722c0-37.334 26.742-68.876 62.076-76.248v-132.732c0-10.656 6.504-19.802 16.572-23.298 2.73-0.948 5.51-1.408 8.246-1.408 7.354 0 14.384 3.324 19.198 9.418l112.568 142.512c1.624 2.058 3.95 3.394 6.546 3.764 8.202 1.164 13.908 8.758 12.742 16.96-1.164 8.202-8.746 13.912-16.96 12.742z" />
<glyph unicode="&#xe93d;" glyph-name="clock" d="M512 960c-282.328 0-512-229.672-512-512s229.672-512 512-512 512 229.672 512 512-229.672 512-512 512zM755.5 183.172c-8.32-8.32-19.242-12.508-30.164-12.508s-21.852 4.188-30.164 12.508l-213.336 213.328c-8.023 7.977-12.5 18.82-12.5 30.164v277.336c0 23.594 19.109 42.664 42.664 42.664s42.664-19.070 42.664-42.664v-259.672l200.836-200.828c16.68-16.688 16.68-43.648 0-60.328z" />
<glyph unicode="&#xe946;" glyph-name="credit-card" d="M928 832h-832c-52.8 0-96-43.2-96-96v-576c0-52.8 43.2-96 96-96h832c52.8 0 96 43.2 96 96v576c0 52.8-43.2 96-96 96zM96 768h832c17.346 0 32-14.654 32-32v-96h-896v96c0 17.346 14.654 32 32 32zM928 128h-832c-17.346 0-32 14.654-32 32v288h896v-288c0-17.346-14.654-32-32-32zM128 320h64v-128h-64zM256 320h64v-128h-64zM384 320h64v-128h-64z" />
<glyph unicode="&#xe947;" glyph-name="pushpin" d="M544 960l-96-96 96-96-224-256h-224l176-176-272-360.616v-39.384h39.384l360.616 272 176-176v224l256 224 96-96 96 96-480 480zM448 416l-64 64 224 224 64-64-224-224z" />
<glyph unicode="&#xe94b;" glyph-name="danger" d="M1002.724 192.1l-361.73 664.952c-58.118 97.842-199.792 97.972-257.988 0l-361.712-664.952c-59.412-99.978 12.518-226.582 128.964-226.582h723.472c116.348 0 188.406 126.502 128.994 226.582zM512 85.518c-33.076 0-60 26.924-60 60s26.924 60 60 60c33.076 0 60-26.924 60-60s-26.924-60-60-60zM572 325.518c0-33.076-26.924-60-60-60s-60 26.924-60 60v300c0 33.076 26.924 60 60 60s60-26.924 60-60v-300z" />
<glyph unicode="&#xe94d;" glyph-name="danger-o" d="M1012.369 121.917l-426.066 737.965c-15.509 26.862-43.285 42.897-74.304 42.897s-58.794-16.037-74.304-42.897l-426.064-737.965c-15.509-26.862-15.509-58.936 0-85.797 15.509-26.864 43.287-42.899 74.304-42.899h852.13c31.018 0 58.794 16.037 74.304 42.899 15.509 26.86 15.509 58.934 0 85.797zM986.39 51.117c-10.087-17.471-28.152-27.9-48.325-27.9h-852.13c-20.173 0-38.238 10.429-48.325 27.9-10.085 17.469-10.085 38.33 0 55.799l426.066 737.967c10.085 17.469 28.152 27.898 48.325 27.898s38.238-10.429 48.325-27.898l426.064-737.967c10.085-17.469 10.085-38.328 0-55.799zM589.094 662.672c-4.142 7.176-13.315 9.631-20.489 5.49s-9.631-13.315-5.49-20.489l304.996-528.268h-243.885c-8.283 0-14.999-6.716-14.999-14.999s6.716-14.999 14.999-14.999h269.864c5.36 0 10.309 2.86 12.989 7.5s2.68 10.359 0 14.999l-317.985 550.767zM399.786 119.405h-243.897l356.11 616.805 17.391-30.124c4.142-7.174 13.315-9.631 20.489-5.49s9.631 13.315 5.49 20.489l-30.38 52.623c-2.68 4.64-7.63 7.5-12.989 7.5s-10.311-2.86-12.989-7.5l-382.089-661.802c-2.68-4.64-2.68-10.359 0-14.999s7.63-7.5 12.989-7.5h269.876c8.283 0 14.999 6.716 14.999 14.999s-6.716 14.999-14.999 14.999zM512.001 199.56c-34.79 0-63.092-28.304-63.092-63.092 0-34.79 28.302-63.094 63.092-63.094s63.092 28.304 63.092 63.094c0 34.788-28.302 63.092-63.092 63.092zM512.001 103.372c-18.249 0-33.094 14.847-33.094 33.096s14.845 33.094 33.094 33.094 33.094-14.845 33.094-33.094-14.845-33.096-33.094-33.096zM480.805 568.28c-8.473 0-16.679-3.526-22.511-9.671-5.832-6.148-8.921-14.525-8.477-22.989l14.343-272.531c0.868-16.485 14.479-29.4 30.988-29.4h33.706c16.509 0 30.12 12.915 30.988 29.4l14.343 272.531c0.446 8.461-2.646 16.841-8.477 22.989-5.834 6.148-14.037 9.671-22.511 9.671h-62.392zM544.227 537.196l-14.343-272.531c-0.028-0.548-0.482-0.978-1.032-0.978h-33.706c-0.55 0-1.002 0.43-1.032 0.978l-14.343 272.531c-0.006 0.11-0.024 0.442 0.282 0.764s0.64 0.322 0.75 0.322h62.392c0.11 0 0.444 0 0.75-0.322s0.288-0.654 0.282-0.764z" />
<glyph unicode="&#xe951;" glyph-name="dashboard" d="M983.438 537.144c-27.042 63.244-63.424 117.712-109.138 163.435-45.711 45.715-100.191 82.094-163.437 109.14-63.248 27.046-129.52 40.572-198.863 40.572-69.339 0-135.623-13.528-198.859-40.572-63.236-27.056-117.712-63.424-163.425-109.14-45.723-45.723-82.096-100.191-109.148-163.435-27.046-63.244-40.57-129.522-40.57-198.859 0-99.803 26.856-191.816 80.571-276.007 7.233-11.048 17.521-16.568 30.856-16.568h801.146c13.33 0 23.617 5.522 30.85 16.568 53.719 84.57 80.575 176.577 80.575 276.007 0 69.337-13.518 135.615-40.56 198.859zM460.281 755.713c14.294 14.288 31.527 21.434 51.718 21.434 20.193 0 37.425-7.147 51.714-21.434 14.288-14.28 21.438-31.521 21.438-51.712s-7.149-37.425-21.438-51.712-31.521-21.434-51.714-21.434c-20.191 0-37.431 7.147-51.718 21.434-14.28 14.288-21.43 31.521-21.43 51.712s7.141 37.429 21.43 51.712zM198.002 286.571c-14.286-14.28-31.527-21.446-51.718-21.446-20.185 0-37.425 7.165-51.712 21.446-14.288 14.274-21.426 31.521-21.426 51.714 0 20.191 7.137 37.423 21.426 51.712s31.527 21.432 51.712 21.432c20.191 0 37.439-7.143 51.718-21.432s21.43-31.521 21.43-51.712c0-20.193-7.149-37.425-21.43-51.714zM307.72 542.572c-14.294-14.284-31.527-21.434-51.72-21.434s-37.431 7.157-51.72 21.434c-14.28 14.28-21.428 31.521-21.428 51.712s7.139 37.425 21.428 51.712c14.294 14.288 31.527 21.434 51.72 21.434 20.191 0 37.431-7.147 51.72-21.434 14.28-14.288 21.428-31.521 21.428-51.712 0-20.185-7.149-37.423-21.428-51.712zM631.424 537.712l-57.72-218.283c19.062-12.945 32.776-30.274 41.158-51.998 8.37-21.714 9.521-44 3.424-66.857-7.618-29.335-24.574-51.624-50.863-66.855-26.289-15.239-54.091-19.056-83.433-11.432-29.327 7.618-51.62 24.568-66.853 50.857-15.233 26.295-19.042 54.093-11.424 83.437 6.092 22.849 18.093 41.61 36 56.267 17.901 14.677 38.28 22.953 61.137 24.862l57.716 218.287c2.664 9.903 8.378 17.435 17.136 22.578 8.768 5.134 17.903 6.373 27.432 3.709 9.535-2.67 16.862-8.284 21.998-16.852 5.156-8.58 6.579-17.817 4.291-27.72zM716.286 542.572c-14.288 14.28-21.438 31.521-21.438 51.712s7.149 37.425 21.438 51.712 31.521 21.434 51.714 21.434c20.191 0 37.423-7.147 51.712-21.434s21.44-31.521 21.44-51.712c0-20.185-7.151-37.425-21.44-51.712-14.288-14.284-31.521-21.434-51.712-21.434-20.193 0-37.425 7.149-51.714 21.434zM929.425 286.571c-14.288-14.28-31.521-21.446-51.712-21.446-20.193 0-37.425 7.165-51.714 21.446-14.288 14.274-21.432 31.521-21.432 51.714 0 20.191 7.143 37.423 21.432 51.712s31.521 21.432 51.714 21.432c20.191 0 37.423-7.143 51.712-21.432s21.424-31.521 21.424-51.712c0-20.193-7.137-37.425-21.424-51.714z" />
<glyph unicode="&#xe953;" glyph-name="calendar" d="M320 576h128v-128h-128zM512 576h128v-128h-128zM704 576h128v-128h-128zM128 192h128v-128h-128zM320 192h128v-128h-128zM512 192h128v-128h-128zM320 384h128v-128h-128zM512 384h128v-128h-128zM704 384h128v-128h-128zM128 384h128v-128h-128zM832 960v-64h-128v64h-448v-64h-128v64h-128v-1024h960v1024h-128zM896 0h-832v704h832v-704z" />
<glyph unicode="&#xe954;" glyph-name="document" d="M660 660c-38.598 0-70 31.402-70 70v230h-358c-60.654 0-110-49.346-110-110v-804c0-60.654 49.346-110 110-110h560c60.654 0 110 49.346 110 110v614zM286 240h145.44c16.568 0 30-13.432 30-30s-13.432-30-30-30h-145.44c-16.568 0-30 13.432-30 30s13.432 30 30 30zM256 370c0 16.568 13.432 30 30 30h440c16.568 0 30-13.432 30-30s-13.432-30-30-30h-440c-16.568 0-30 13.432-30 30zM726 560c16.568 0 30-13.432 30-30s-13.432-30-30-30h-440c-16.568 0-30 13.432-30 30s13.432 30 30 30zM650 730c0-5.514 4.486-10 10-10h228.628c-5.488 10.132-12.548 19.438-21.030 27.464l-192.846 182.444c-7.484 7.080-15.82 12.986-24.75 17.65v-217.558z" />
<glyph unicode="&#xe957;" glyph-name="edit" d="M810.664 446.031c-23.594 0-42.664-19.117-42.664-42.664v-341.336c0-23.508-19.117-42.664-42.664-42.664h-597.336c-23.555 0-42.664 19.156-42.664 42.664v597.336c0 23.508 19.109 42.664 42.664 42.664h341.336c23.594 0 42.664 19.117 42.664 42.664 0 23.555-19.070 42.672-42.664 42.672h-341.336c-70.57 0-128-57.43-128-128v-597.336c0-70.57 57.43-128 128-128h597.336c70.57 0 128 57.43 128 128v341.336c0 23.594-19.078 42.664-42.672 42.664zM400.039 484.898c-2.984-2.984-4.992-6.781-5.844-10.875l-30.164-150.875c-1.406-6.992 0.813-14.203 5.844-19.281 4.055-4.055 9.516-6.227 15.109-6.227 1.359 0 2.773 0.125 4.18 0.422l150.828 30.164c4.18 0.859 7.977 2.859 10.922 5.852l337.578 337.578-150.828 150.82zM992.766 926.797c-41.594 41.602-109.266 41.602-150.828 0l-59.047-59.047 150.828-150.828 59.047 59.055c20.141 20.094 31.234 46.891 31.234 75.391s-11.094 55.297-31.234 75.43z" />
<glyph unicode="&#xe958;" glyph-name="envelope" d="M21.376 769.688c140.54-119.022 387.144-328.418 459.624-393.708 9.73-8.812 20.166-13.292 31-13.292 10.812 0 21.23 4.438 30.938 13.208 72.542 65.354 319.146 274.77 459.688 393.792 8.75 7.396 10.084 20.396 3 29.438-16.376 20.894-40.792 32.874-66.96 32.874h-853.332c-26.166 0-50.584-11.98-66.958-32.876-7.084-9.040-5.75-22.040 3-29.436zM1011.626 705.188c-7.562 3.52-16.458 2.292-22.75-3.084-155.856-132.124-354.772-301.48-417.356-357.874-35.126-31.708-83.876-31.708-119.084 0.042-66.708 60.104-290.084 250-417.312 357.834-6.334 5.376-15.25 6.562-22.75 3.084-7.54-3.502-12.374-11.044-12.374-19.356v-536.5c0-47.064 38.27-85.334 85.334-85.334h853.334c47.062 0 85.332 38.27 85.332 85.334v536.5c0 8.312-4.834 15.874-12.374 19.354z" />
<glyph unicode="&#xe95d;" glyph-name="excel" d="M992 799.978h-416v96c0 9.536-4.224 18.56-11.584 24.64-7.296 6.080-17.088 8.704-26.304 6.784l-512-96c-15.168-2.816-26.112-16-26.112-31.424v-704c0-15.36 10.944-28.608 26.112-31.424l512-96c1.92-0.384 3.904-0.576 5.888-0.576 7.424 0 14.656 2.56 20.416 7.36 7.36 6.080 11.584 15.168 11.584 24.64v96h416c17.664 0 32 14.336 32 32v640c0 17.664-14.336 32-32 32zM440.064 341.034c11.648-13.248 10.304-33.472-3.008-45.12-6.080-5.312-13.568-7.936-21.056-7.936-8.896 0-17.728 3.712-24.064 10.944l-93.056 106.304-81.6-104.96c-6.336-8.064-15.808-12.288-25.28-12.288-6.848 0-13.76 2.176-19.648 6.72-13.952 10.88-16.448 30.976-5.632 44.928l89.216 114.688-88 100.608c-11.648 13.248-10.304 33.472 3.008 45.12 13.248 11.648 33.408 10.368 45.184-3.008l79.872-91.264 94.784 121.856c10.88 13.888 30.976 16.448 44.928 5.568 13.952-10.816 16.448-30.912 5.568-44.928l-102.4-131.584 101.184-115.648zM960 159.978h-384v64h96c17.664 0 32 14.336 32 32s-14.336 32-32 32h-96v64h96c17.664 0 32 14.336 32 32s-14.336 32-32 32h-96v64h96c17.664 0 32 14.336 32 32s-14.336 32-32 32h-96v64h96c17.664 0 32 14.336 32 32s-14.336 32-32 32h-96v64h384v-576zM864 671.978h-64c-17.664 0-32-14.336-32-32s14.336-32 32-32h64c17.664 0 32 14.336 32 32s-14.336 32-32 32zM864 543.978h-64c-17.664 0-32-14.336-32-32s14.336-32 32-32h64c17.664 0 32 14.336 32 32s-14.336 32-32 32zM864 415.978h-64c-17.664 0-32-14.336-32-32s14.336-32 32-32h64c17.664 0 32 14.336 32 32s-14.336 32-32 32zM864 287.978h-64c-17.664 0-32-14.336-32-32s14.336-32 32-32h64c17.664 0 32 14.336 32 32s-14.336 32-32 32z" />
<glyph unicode="&#xe967;" glyph-name="filter" d="M320 64c-3.243 0-6.528 0.768-9.557 2.261-7.211 3.627-11.776 11.008-11.776 19.072v348.629c0 16.853-6.827 33.365-18.773 45.269l-248.619 248.491c-20.181 20.139-31.275 46.933-31.275 75.435v92.843c0 35.285 28.715 64 64 64h682.667c35.285 0 64-28.715 64-64v-92.843c0-28.501-11.093-55.296-31.275-75.477l-248.619-248.448c-11.947-11.904-18.773-28.416-18.773-45.269v-199.296c0-20.053-9.557-39.168-25.6-51.2l-153.6-115.2c-3.755-2.816-8.277-4.267-12.8-4.267zM64 917.333c-11.776 0-21.333-9.557-21.333-21.333v-92.843c0-17.109 6.656-33.195 18.773-45.312l248.619-248.448c19.883-19.797 31.275-47.317 31.275-75.435v-305.963l119.467 89.6c5.333 4.011 8.533 10.368 8.533 17.067v199.296c0 28.117 11.392 55.595 31.275 75.477l248.619 248.448c12.117 12.075 18.773 28.16 18.773 45.269v92.843c0 11.776-9.557 21.333-21.333 21.333zM960-64h-298.667c-35.285 0-64 28.715-64 64v384c0 35.285 28.715 64 64 64h298.667c35.285 0 64-28.715 64-64v-384c0-35.285-28.715-64-64-64zM661.333 405.333c-11.776 0-21.333-9.557-21.333-21.333v-384c0-11.776 9.557-21.333 21.333-21.333h298.667c11.776 0 21.333 9.557 21.333 21.333v384c0 11.776-9.557 21.333-21.333 21.333zM874.667 234.667h-128c-11.776 0-21.333 9.557-21.333 21.333s9.557 21.333 21.333 21.333h128c11.776 0 21.333-9.557 21.333-21.333s-9.557-21.333-21.333-21.333zM874.667 106.667h-128c-11.776 0-21.333 9.557-21.333 21.333s9.557 21.333 21.333 21.333h128c11.776 0 21.333-9.557 21.333-21.333s-9.557-21.333-21.333-21.333z" />
<glyph unicode="&#xe972;" glyph-name="group-user" d="M876.182 413.359h-79.192c8.072-22.1 12.482-45.95 12.482-70.808v-299.301c0-10.364-1.804-20.312-5.086-29.564h130.922c48.906 0 88.692 39.788 88.692 88.692v163.162c0.002 81.506-66.31 147.818-147.818 147.818zM214.53 342.549c0 24.86 4.41 48.708 12.482 70.808h-79.192c-81.508 0-147.82-66.312-147.82-147.82v-163.162c0-48.904 39.786-88.692 88.692-88.692h130.924c-3.282 9.256-5.086 19.202-5.086 29.566v299.301zM602.523 490.369h-181.044c-81.508 0-147.82-66.312-147.82-147.82v-299.301c0-16.326 13.236-29.564 29.564-29.564h417.557c16.328 0 29.564 13.236 29.564 29.564v299.301c0 81.508-66.312 147.82-147.82 147.82zM512.001 882.32c-98.024 0-177.772-79.748-177.772-177.774 0-66.49 36.698-124.56 90.894-155.048 25.706-14.46 55.342-22.724 86.878-22.724s61.172 8.264 86.878 22.724c54.198 30.488 90.894 88.56 90.894 155.048 0 98.024-79.748 177.774-177.772 177.774zM199.836 716.622c-73.31 0-132.95-59.64-132.95-132.95s59.64-132.95 132.95-132.95c18.596 0 36.304 3.852 52.39 10.776 27.812 11.974 50.744 33.17 64.934 59.72 9.96 18.634 15.626 39.892 15.626 62.454 0 73.308-59.64 132.95-132.95 132.95zM824.166 716.622c-73.31 0-132.95-59.64-132.95-132.95 0-22.564 5.666-43.822 15.626-62.454 14.19-26.552 37.122-47.748 64.934-59.72 16.086-6.924 33.794-10.776 52.39-10.776 73.31 0 132.95 59.64 132.95 132.95s-59.64 132.95-132.95 132.95z" />
<glyph unicode="&#xe973;" glyph-name="group-user-o" d="M511.999 781.914c-85.926 0-155.827-69.898-155.827-155.827s69.898-155.827 155.827-155.827 155.827 69.9 155.827 155.827c0 85.926-69.898 155.827-155.827 155.827zM511.999 514.784c-61.35 0-111.304 49.953-111.304 111.304s49.953 111.304 111.304 111.304 111.304-49.953 111.304-111.304-49.951-111.304-111.304-111.304zM823.652 603.826c-61.35 0-111.304-49.953-111.304-111.304s49.953-111.304 111.304-111.304 111.304 49.953 111.304 111.304-49.953 111.304-111.304 111.304zM823.652 425.739c-36.82 0-66.783 29.962-66.783 66.783s29.962 66.783 66.783 66.783 66.783-29.962 66.783-66.783c0-36.82-29.965-66.783-66.783-66.783zM203.509 603.826c-61.396 0-111.304-49.953-111.304-111.304s49.953-111.304 111.304-111.304 111.304 49.953 111.304 111.304-49.91 111.304-111.304 111.304zM203.509 425.739c-36.82 0-66.783 29.962-66.783 66.783s29.962 66.783 66.783 66.783c36.82 0 66.783-29.962 66.783-66.783s-29.965-66.783-66.783-66.783zM511.999 425.739c-159.567 0-289.392-129.825-289.392-289.392 0-12.288 9.974-22.262 22.262-22.262s22.262 9.974 22.262 22.262c0 135.034 109.834 244.869 244.869 244.869s244.869-109.834 244.869-244.869c0-12.288 9.974-22.262 22.262-22.262s22.262 9.974 22.262 22.262c0 159.567-129.825 289.392-289.392 289.392zM823.652 336.695c-36.641 0-72.526-10.017-103.78-28.94-10.462-6.411-13.847-20.079-7.48-30.586 6.455-10.508 20.079-13.847 30.586-7.48 24.263 14.738 52.134 22.485 80.673 22.485 85.926 0 155.827-69.898 155.827-155.827 0-12.288 9.974-22.262 22.262-22.262s22.262 9.974 22.262 22.262c-0.002 110.458-89.891 200.348-200.35 200.348zM304.084 307.801c-31.21 18.877-67.094 28.894-103.736 28.894-110.458 0-200.348-89.889-200.348-200.348 0-12.288 9.974-22.262 22.262-22.262s22.262 9.974 22.262 22.262c-0.002 85.928 69.898 155.827 155.825 155.827 28.539 0 56.408-7.747 80.63-22.439 10.462-6.367 24.175-3.028 30.586 7.48s3.026 24.175-7.48 30.586z" />
<glyph unicode="&#xe974;" glyph-name="heart" d="M512-7.031c-14.578 0-28.633 5.281-39.586 14.875-41.367 36.172-81.25 70.164-116.438 100.148l-0.18 0.156c-103.164 87.914-192.25 163.836-254.234 238.625-69.289 83.609-101.563 162.883-101.563 249.484 0 84.141 28.852 161.766 81.234 218.586 53.008 57.492 125.742 89.156 204.828 89.156 59.109 0 113.242-18.688 160.891-55.539 24.047-18.602 45.844-41.367 65.047-67.922 19.211 26.555 41 49.32 65.055 67.922 47.648 36.852 101.781 55.539 160.891 55.539 79.078 0 151.82-31.664 204.828-89.156 52.383-56.82 81.227-134.445 81.227-218.586 0-86.602-32.266-165.875-101.555-249.477-61.984-74.797-151.063-150.711-254.211-238.617-35.25-30.031-75.195-64.078-116.656-100.336-10.945-9.578-25.008-14.859-39.578-14.859zM286.063 844.016c-62.133 0-119.211-24.797-160.734-69.828-42.141-45.711-65.352-108.898-65.352-177.93 0-72.836 27.070-137.977 87.766-211.211 58.664-70.789 145.922-145.148 246.953-231.25l0.188-0.156c35.32-30.102 75.359-64.227 117.031-100.664 41.922 36.508 82.023 70.688 117.414 100.836 101.023 86.102 188.273 160.445 246.938 231.234 60.688 73.234 87.758 138.375 87.758 211.211 0 69.031-23.211 132.219-65.352 177.93-41.516 45.031-98.602 69.828-160.727 69.828-45.516 0-87.305-14.469-124.203-43-32.883-25.438-55.789-57.594-69.219-80.094-6.906-11.57-19.063-18.477-32.523-18.477s-25.617 6.906-32.523 18.477c-13.422 22.5-36.328 54.656-69.219 80.094-36.898 28.531-78.688 43-124.195 43z" />
<glyph unicode="&#xe975;" glyph-name="image" d="M266.647 169.337c-68.306 0-129.066 43.735-151.129 108.846l-1.492 4.906c-5.203 17.243-7.383 31.743-7.383 46.251v290.913l-103.51-345.524c-13.313-50.822 17.024-103.51 67.924-117.55l659.774-176.692c8.235-2.133 16.469-3.156 24.579-3.156 42.493 0 81.322 28.204 92.205 69.767l38.438 122.237zM383.986 617.348c47.064 0 85.33 38.274 85.33 85.338s-38.267 85.338-85.33 85.338-85.338-38.274-85.338-85.338 38.274-85.338 85.338-85.338zM917.327 916.027h-640.016c-58.791 0-106.667-47.876-106.667-106.674v-469.34c0-58.798 47.876-106.674 106.667-106.674h640.016c58.798 0 106.674 47.876 106.674 106.674v469.34c0 58.798-47.876 106.674-106.674 106.674zM277.311 830.689h640.016c11.782 0 21.336-9.555 21.336-21.336v-302.898l-134.785 157.277c-14.297 16.766-34.993 25.727-57.22 26.235-22.102-0.125-42.837-9.938-57.001-26.923l-158.473-190.208-51.626 51.501c-29.18 29.18-76.674 29.18-105.815 0l-117.761-117.722v402.736c0 11.782 9.555 21.336 21.329 21.336z" />
<glyph unicode="&#xe976;" glyph-name="image-o" d="M744.661-64c-7.168 0-14.507 0.896-21.76 2.816l-659.755 176.683c-45.227 12.459-72.192 59.307-60.331 104.533l83.243 310.272c3.072 11.392 14.763 18.005 26.112 15.104 11.392-3.029 18.133-14.763 15.104-26.112l-83.2-310.187c-5.931-22.613 7.637-46.165 30.293-52.437l659.499-176.597c22.656-5.973 46.037 7.509 51.925 30.037l33.323 123.477c3.072 11.392 14.763 18.176 26.155 15.061 11.392-3.072 18.091-14.805 15.061-26.155l-33.28-123.307c-10.027-37.973-44.587-63.189-82.389-63.189zM938.667 192h-682.667c-47.061 0-85.333 38.272-85.333 85.333v512c0 47.061 38.272 85.333 85.333 85.333h682.667c47.061 0 85.333-38.272 85.333-85.333v-512c0-47.061-38.272-85.333-85.333-85.333zM256 832c-23.509 0-42.667-19.157-42.667-42.667v-512c0-23.509 19.157-42.667 42.667-42.667h682.667c23.509 0 42.667 19.157 42.667 42.667v512c0 23.509-19.157 42.667-42.667 42.667zM384 576c-47.061 0-85.333 38.272-85.333 85.333s38.272 85.333 85.333 85.333 85.333-38.272 85.333-85.333-38.272-85.333-85.333-85.333zM384 704c-23.509 0-42.667-19.157-42.667-42.667s19.157-42.667 42.667-42.667 42.667 19.157 42.667 42.667-19.157 42.667-42.667 42.667zM194.987 237.653c-5.461 0-10.923 2.091-15.104 6.229-8.32 8.32-8.32 21.845 0 30.165l201.515 201.515c24.149 24.149 66.347 24.149 90.496 0l59.989-59.989 166.059 199.253c12.075 14.464 29.824 22.869 48.725 23.040h0.469c18.688 0 36.395-8.107 48.597-22.315l223.147-260.352c7.68-8.917 6.656-22.4-2.304-30.080-8.917-7.68-22.357-6.699-30.080 2.304l-223.147 260.352c-4.139 4.779-9.856 7.424-16.213 7.424-4.437 0.384-12.245-2.688-16.384-7.68l-181.035-217.216c-3.84-4.608-9.429-7.381-15.445-7.637-6.059-0.427-11.819 1.963-16.043 6.229l-76.501 76.501c-8.064 8.021-22.101 8.021-30.165 0l-201.515-201.515c-4.139-4.139-9.6-6.229-15.061-6.229z" />
<glyph unicode="&#xe978;" glyph-name="locale" d="M512 960c-204.49 0-370.854-166.364-370.854-370.852 0-253.776 331.878-626.334 346.008-642.070 13.272-14.782 36.444-14.756 49.692 0 14.13 15.736 346.008 388.294 346.008 642.070-0.004 204.488-166.366 370.852-370.854 370.852zM512 402.562c-102.884 0-186.584 83.702-186.584 186.586s83.702 186.584 186.584 186.584 186.582-83.702 186.582-186.586-83.7-186.584-186.582-186.584z" />
<glyph unicode="&#xe979;" glyph-name="locale-o" d="M512 960c-198.504 0-360-161.496-360-360 0-67.068 18.578-132.52 53.738-189.304l285.77-460.514c5.474-8.822 15.118-14.182 25.49-14.182 0.080 0 0.158 0 0.238 0 10.462 0.082 20.126 5.608 25.5 14.584l278.486 464.976c33.22 55.584 50.778 119.362 50.778 184.44 0 198.504-161.496 360-360 360zM769.732 446.364l-253.188-422.736-259.81 418.68c-29.266 47.264-45.134 101.792-45.134 157.692 0 165.42 134.98 300.4 300.4 300.4s300.2-134.98 300.2-300.4c0-54.242-14.822-107.376-42.468-153.636zM512 780c-99.252 0-180-80.748-180-180 0-98.618 79.434-180 180-180 101.806 0 180 82.466 180 180 0 99.252-80.748 180-180 180zM512 479.6c-66.514 0-120.4 54.066-120.4 120.4 0 66.168 54.232 120.4 120.4 120.4s120.2-54.232 120.2-120.4c0-65.366-52.632-120.4-120.2-120.4z" />
<glyph unicode="&#xe97a;" glyph-name="mail" d="M971.486 789.334h-918.972c-28.884 0-52.514-23.63-52.514-52.512v-577.642c0-28.88 23.63-52.514 52.514-52.514h918.974c28.88 0 52.514 23.63 52.514 52.514v577.642c-0.002 28.882-23.632 52.512-52.516 52.512zM951.78 749.952l-409.572-307.204c-7.364-5.604-18.668-9.11-30.21-9.058-11.54-0.052-22.842 3.454-30.208 9.058l-409.572 307.204h879.562zM733 422.478l223.18-275.694c0.224-0.276 0.498-0.486 0.736-0.736h-889.832c0.236 0.262 0.512 0.46 0.736 0.736l223.18 275.694c6.838 8.454 5.542 20.848-2.928 27.702-8.454 6.838-20.848 5.542-27.688-2.914l-221-273.002v551.072l418.788-314.092c15.742-11.724 34.894-16.884 53.824-16.936 18.904 0.040 38.072 5.2 53.824 16.936l418.788 314.092v-551.068l-220.994 272.998c-6.84 8.454-19.246 9.754-27.688 2.914-8.468-6.838-9.768-19.248-2.926-27.702z" />
<glyph unicode="&#xe97b;" glyph-name="map" d="M991.97 512.028c-17.663 0-31.998-14.335-31.998-31.998v-362.345l-255.984-102.394v336.747c0 17.663-14.335 31.998-31.998 31.998s-31.998-14.335-31.998-31.998v-336.683l-255.984 102.394v506.976l148.279-59.324c16.191-6.528 35.006 1.408 41.597 17.855 6.592 16.383-1.408 35.006-17.855 41.597l-191.54 76.667c0 0 0 0-0.064 0l-0.512 0.192c-7.616 3.072-16.127 3.072-23.743 0l-0.576-0.192c0 0 0 0-0.064 0l-319.404-127.8c-12.095-4.864-20.095-16.575-20.095-29.694v-575.964c0-10.623 5.312-20.543 14.079-26.494 5.376-3.648 11.583-5.504 17.919-5.504 4.032 0 8.063 0.768 11.903 2.304l308.077 123.192 307.501-123c0 0 0 0 0.064 0l0.576-0.256c7.616-3.072 16.127-3.072 23.743 0l0.576 0.256c0 0 0 0 0.064 0l319.404 127.736c12.031 4.928 20.031 16.639 20.031 29.758v383.976c0 17.663-14.335 31.998-31.998 31.998zM320.012 117.749l-255.984-102.394v507.040l255.984 102.394v-507.040zM799.982 832.008c-52.925 0-95.994-43.069-95.994-95.994s43.069-95.994 95.994-95.994 95.994 43.069 95.994 95.994-43.069 95.994-95.994 95.994zM799.982 704.016c-17.663 0-31.998 14.335-31.998 31.998s14.335 31.998 31.998 31.998c17.663 0 31.998-14.335 31.998-31.998s-14.335-31.998-31.998-31.998zM799.982 960c-123.512 0-223.986-100.474-223.986-223.986 0-114.937 179.701-318.508 200.179-341.355 6.080-6.72 14.719-10.623 23.807-10.623s17.727 3.904 23.807 10.623c20.479 22.847 200.179 226.418 200.179 341.355 0 123.512-100.474 223.986-223.986 223.986zM799.982 464.863c-69.884 82.875-159.99 210.099-159.99 271.151 0 88.186 71.804 159.99 159.99 159.99s159.99-71.804 159.99-159.99c0-60.988-90.106-188.276-159.99-271.151z" />
<glyph unicode="&#xe980;" glyph-name="messenger" d="M512 960c-282.969 0-512-228.992-512-512 0-89.805 23.422-177.516 67.898-254.875l-65.969-204.859c-4.602-14.281-0.82-29.937 9.789-40.547 10.508-10.508 26.125-14.43 40.547-9.789l204.859 65.969c77.359-44.477 165.070-67.898 254.875-67.898 282.969 0 512 228.992 512 512 0 282.969-228.992 512-512 512zM512 16c-81.117 0-160.187 22.633-228.664 65.453-9.852 6.156-22.086 7.82-33.469 4.156l-147.883-47.625 47.625 147.883c3.609 11.219 2.086 23.469-4.164 33.469-42.812 68.477-65.445 147.547-65.445 228.664 0 238.203 193.797 432 432 432s432-193.797 432-432-193.797-432-432-432zM562 448c0-27.609-22.383-50-50-50s-50 22.391-50 50c0 27.617 22.383 50 50 50s50-22.383 50-50zM762 448c0-27.609-22.383-50-50-50s-50 22.391-50 50c0 27.617 22.383 50 50 50s50-22.383 50-50zM362 448c0-27.609-22.383-50-50-50-27.609 0-50 22.391-50 50 0 27.617 22.391 50 50 50 27.617 0 50-22.383 50-50z" />
<glyph unicode="&#xe981;" glyph-name="notification" d="M935.624 96.298l-73.258 122.112c-33.834 56.362-51.712 120.918-51.712 186.624v106.966c0 135.040-90.112 249.258-213.334 286.080v76.586c0 47.062-38.272 85.334-85.334 85.334s-85.334-38.272-85.334-85.334v-76.586c-123.22-36.822-213.332-151.040-213.332-286.080v-106.966c0-65.706-17.878-130.218-51.67-186.582l-73.258-122.112c-3.968-6.614-4.054-14.806-0.256-21.504s10.838-10.838 18.518-10.838h810.666c7.68 0 14.762 4.138 18.56 10.794 3.798 6.658 3.67 14.936-0.256 21.506zM377.63 21.334c24.064-50.262 75.008-85.334 134.356-85.334s110.294 35.072 134.358 85.334h-268.714z" />
<glyph unicode="&#xe982;" glyph-name="order" d="M138.024 553.002h154.976c11.044 0 20 8.956 20 20s-8.956 20-20 20h-154.976c-11.044 0-20-8.956-20-20s8.954-20 20-20zM138.024 414.51h154.976c11.044 0 20 8.956 20 20s-8.956 20-20 20h-154.976c-11.044 0-20-8.956-20-20s8.954-20 20-20zM330.020 79.282c-4.194 10.058-16.024 14.996-26.12 10.818-10.066-4.166-14.974-16.066-10.8-26.12 4.18-10.070 16.022-14.982 26.1-10.82 10.060 4.154 15.004 16.070 10.82 26.122zM1018.634 388.762l-237.888 255.36 72.836 72.666c12.65 12.51 19.618 29.202 19.618 47 0 17.55-6.796 34.070-19.126 46.512-25.506 25.76-67.488 26.092-93.588 0.734-0.064-0.062-0.126-0.124-0.19-0.186l-99.862-99.622h-37.312v76.806c0 11.044-8.956 20-20 20h-105.906v16.338c0 11.044-8.956 20-20 20s-20-8.956-20-20v-16.338h-73.062v16.338c0 11.044-8.956 20-20 20s-20-8.956-20-20v-16.338h-73.064v16.338c0 11.044-8.956 20-20 20s-20-8.956-20-20v-16.338h-73.066v16.338c0 11.044-8.956 20-20 20s-20-8.956-20-20v-16.338h-98.024c-11.044 0-20-8.956-20-20v-716.4c0-11.044 8.956-20 20-20h204.144c11.044 0 20 8.956 20 20s-8.956 20-20 20h-184.144v676.4h78.024v-18.146c0-11.044 8.956-20 20-20s20 8.956 20 20v18.146h73.064v-18.146c0-11.044 8.956-20 20-20s20 8.956 20 20v18.146h73.064v-18.146c0-11.044 8.956-20 20-20s20 8.956 20 20v18.146h73.062v-18.146c0-11.044 8.956-20 20-20s20 8.956 20 20v18.146h85.906v-56.918c-35.924-1.46-70.232-16.63-95.704-41.96l-147.182-147.18c-8.894-8.894-7.242-24.128 3.28-30.938 16.572-10.718 35.148-17.648 54.558-20.442 6.47-0.932 13.032-1.404 19.646-1.404 0.032 0 0.062 0.002 0.092 0.002l-22.958-22.904c-1.666-1.664-2.988-3.6-3.966-5.69l-64.158-96.368c-5.782-8.684-8.142-18.598-7.278-28.21h-181.426c-11.044 0-20-8.956-20-20s8.956-20 20-20h225.246c8.656 0 17.386 2.886 24.514 7.73l97.518 66.262c1.154 0.756 2.268 1.648 3.244 2.62l45.23 45.124 49.346-49.238v-256.886h-183.016c-11.044 0-20-8.956-20-20s8.956-20 20-20h203.016c11.044 0 20 8.956 20 20v237.844c25.284-20.998 56.808-32.444 90.096-32.444h79.794c16.594 0 32.684-6.882 44.042-18.774l152.38-161.934c12.12-12.882 34.564-4.006 34.564 13.706v265.1c0.002 5.058-1.916 9.93-5.364 13.632zM515.704 640.868c19.372 19.372 45.9 30.362 73.296 30.362h31.334l-124.61-124.31c-11.53-11.070-22.444-21.918-37.21-28.762-21.788-10.098-47.102-11.71-70.008-4.484zM788.436 782.42c10.434 10.052 27.1 9.946 37.22-0.272 4.864-4.908 7.542-11.428 7.542-18.36 0-7.032-2.75-13.622-7.804-18.622l-209.020-208.532-10.072 10.074c-9.432 9.432-21.334 16.36-34.188 19.914zM365.302 316.834c-1.712-1.164-3.308-1.030-4.792 0.442-2.212 2.192-1.090 3.878-0.486 4.786l52.264 78.502 30.874-30.826zM474.438 395.058l-37.106 37.106 38.108 38.024c3.598-13.022 10.726-24.91 20.262-34.444l9.758-9.738zM984 160.466l-117.916 125.308c-18.97 19.864-45.604 31.256-73.072 31.256h-79.794c-27.018 0-52.424 10.498-71.534 29.558l-117.77 117.512c-17.002 12.75-13.204 41.016 0.006 54.432 14.842 14.444 39.58 14.414 54.096-0.106l95.684-95.684c7.698-7.694 20.584-7.696 28.286 0 7.81 7.81 7.81 20.474 0 28.286l-57.326 57.326 107.752 107.5 231.588-248.598z" />
<glyph unicode="&#xe984;" glyph-name="paper" d="M1015.572 830.76c-0.608 0.572-120.89 115.282-120.89 115.282-4.598 4.412-9.354 8.972-18.234 8.972h-484.24c-14.144 0-25.652-11.506-25.652-25.65v-78.766l-170.67-29.256c-13.68-2.4-22.88-15.492-20.51-29.158l8.662-50.504c-55.474-18.668-112.428-37.912-167.41-57.662-12.992-4.75-19.81-19.196-15.174-32.266l109.37-304.032c2.2-6.118 7.966-9.928 14.116-9.928 1.684 0 3.4 0.286 5.076 0.89 7.796 2.804 11.842 11.396 9.038 19.192l-107.752 299.536c51.8 18.546 105.444 36.698 157.87 54.344l51.542-300.49 59.308-346.064c2.142-12.216 12.88-20.908 25-20.908 1.372 0 2.764 0.112 4.16 0.342l286.152 49.082-337.652-121.38-115.616 321.578c-2.802 7.796-11.392 11.842-19.19 9.040-7.796-2.802-11.842-11.394-9.040-19.19l117.256-326.148c3.75-10.256 13.466-16.632 23.736-16.632 2.838 0 5.72 0.488 8.528 1.514l501.53 180.28 66.518 11.402h146.942c14.144 0 25.652 11.532 25.652 25.708v653.97c0.002 8.978-4.87 13.558-8.426 16.902zM975.83 827.208l-76.92-0.008c-3.594-0.024-12.008-0.086-14.142 2.034-0.492 0.49-1.068 2.126-1.068 5.164l-0.174 80.83zM994 164.184h-597.444v292.334c0 8.284-6.716 15-15 15s-15-6.716-15-15v-296.626c0-14.174 11.508-25.708 25.652-25.708h281.624l-345.054-59.178-58.496 341.33-64.538 376.26 160.81 27.566v-294.044c0-8.284 6.716-15 15-15s15 6.716 15 15v398.898h456.95l0.196-90.652c0-10.988 3.342-19.876 9.932-26.42 10.126-10.054 24.44-10.754 33.326-10.754 0.764 0 1.488 0.006 2.166 0.010l94.876 0.006zM468.86 722.102c0-8.284 6.716-15 15-15h428.872c8.284 0 15 6.716 15 15s-6.716 15-15 15h-428.872c-8.284 0-15-6.716-15-15zM912.732 630.538h-428.872c-8.284 0-15-6.716-15-15s6.716-15 15-15h428.872c8.284 0 15 6.716 15 15s-6.716 15-15 15zM912.732 523.974h-428.872c-8.284 0-15-6.716-15-15s6.716-15 15-15h428.872c8.284 0 15 6.716 15 15s-6.716 15-15 15zM912.732 417.41h-428.872c-8.284 0-15-6.716-15-15s6.716-15 15-15h428.872c8.284 0 15 6.716 15 15s-6.716 15-15 15zM912.732 310.844h-428.872c-8.284 0-15-6.716-15-15s6.716-15 15-15h428.872c8.284 0 15 6.716 15 15s-6.716 15-15 15z" />
<glyph unicode="&#xe986;" glyph-name="pdf" d="M962.118 804.676l-141.544 141.54c-8.89 8.888-20.708 13.784-33.28 13.784h-595.94c-25.95 0-47.064-21.114-47.064-47.064v-465.968h-33.096c-34.792 0-63.096-28.306-63.096-63.096v-288.58c0-34.792 28.304-63.098 63.096-63.098h497c25.952 0 47.064 21.114 47.064 47.064v224.45c0 25.952-21.114 47.066-47.064 47.066h-497c-18.25 0-33.096 14.846-33.096 33.096s14.846 33.096 33.096 33.096h33.096v-17.070c0-8.284 6.716-15 15-15s15 6.716 15 15v513.040c0 9.41 7.656 17.064 17.064 17.064h578.194v-145.322c0-17.112 13.92-31.034 31.032-31.034h145.322v-770.58c0-9.41-7.656-17.064-17.064-17.064h-737.484c-9.41 0-17.064 7.654-17.064 17.064 0 8.284-6.716 15-15 15s-15-6.716-15-15c0-25.952 21.114-47.064 47.064-47.064h737.484c25.952 0 47.064 21.114 47.064 47.064v788.332c0.002 12.57-4.894 24.39-13.784 33.28zM111.194 320.774h497c9.41 0 17.064-7.656 17.064-17.066v-224.452c0-9.41-7.656-17.064-17.064-17.064h-497c-18.25 0-33.096 14.848-33.096 33.098v234.88c9.626-5.958 20.966-9.396 33.096-9.396zM799.548 784.678v140.136l141.174-141.17h-140.142c-0.568 0-1.032 0.464-1.032 1.034zM473.142 112.824c8.284 0 15 6.716 15 15v49.866h32.502c8.284 0 15 6.716 15 15s-6.716 15-15 15h-32.502v32.454h36.602c8.284 0 15 6.716 15 15 0 8.286-6.716 15-15 15h-51.602c-8.284 0-15-6.714-15-15v-127.318c0-8.284 6.716-15.002 15-15.002zM315.48 118.606c2.81-2.79 6.61-4.354 10.568-4.354h0.056c1.066 0.004 26.196 0.1 36.234 0.276 37.066 0.648 63.97 33.012 63.97 76.956 0 46.194-26.226 77.232-65.262 77.232h-35.25c-3.984 0-7.802-1.584-10.616-4.404s-4.392-6.642-4.384-10.624v-122.414c0-1.030 0.104-2.036 0.302-3.008 0.24-3.638 1.78-7.078 4.382-9.66zM361.046 238.716c26 0 35.262-24.398 35.262-47.232 0-32.024-17.324-46.662-34.494-46.96-4.772-0.084-13.286-0.15-20.818-0.196-0.048 14.716-0.148 79.080-0.174 94.388zM190.89 112.356c8.284 0 15 6.714 15 15v40.792c7.448 0.040 15.916 0.078 20.712 0.078 28.62 0 51.904 22.964 51.904 51.194s-23.284 51.196-51.904 51.196h-35.712c-3.986 0-7.808-1.588-10.624-4.41-2.804-2.812-4.374-6.622-4.374-10.59h-0.002v-128.258c0-8.288 6.716-15.002 15-15.002zM226.602 240.614c11.874 0 21.904-9.708 21.904-21.196s-10.030-21.194-21.904-21.194c-4.764 0-13.126-0.038-20.546-0.076-0.040 7.662-0.1 34.448-0.122 42.464h20.668zM471.896 525.076c-36.866-11.636-74.704-27.742-94.888-48.576-16.654-17.19-19.672-37.134-8.282-54.72 7.73-11.934 18.356-18.172 30.304-18.172 4.586 0 9.368 0.92 14.254 2.788 17.626 6.74 36.662 25.914 58.196 58.62 6.952 10.558 13.99 22.292 20.996 34.986 2.55 0.75 5.15 1.496 7.81 2.24 42.332 11.844 90.224 20.44 132.256 24.032 25.622-24.776 52.106-44.080 74.684-49.346 24.838-5.794 44.53 5.564 52.664 30.384 4.926 15.034-0.746 29.21-15.176 37.92-14.836 8.958-40.618 13.284-76.612 12.872-7.666-0.088-15.758-0.4-24.178-0.922-16.17 16.676-32.994 36.606-49.196 58.616-12.552 17.050-23.772 34.112-33.26 50.33 1.032 3.554 2.012 7.060 2.942 10.504 10.254 38.026 13.912 67.14 10.87 86.536-4.394 28.010-22.472 31.988-30.040 32.396-25.77 1.394-43.128-11.608-46.43-34.778-2.624-18.406 3.566-43.73 18.396-75.266 3.526-7.496 7.48-15.222 11.822-23.112-1.618-5.192-3.372-10.594-5.272-16.216-13.828-40.908-32.556-84.498-51.86-121.116zM399.862 433.688c-1.070-0.134-2.874-0.36-5.958 4.402-2.51 3.876-2.646 6.8-0.504 10.792 5.008 9.336 22.106 22.436 55.192 35.968-23.092-35.816-40.35-50.116-48.73-51.162zM731.63 517.674c-0.022-0.186-0.082-0.518-0.248-1.022-3.746-11.432-8.78-12.51-17.342-10.512-10.452 2.438-23.728 10.16-38.536 21.978 40.096-0.32 54.084-7.544 56.126-10.444zM528.508 756.55c0.612 4.288 1.298 9.11 12.71 9.11 0.718 0 1.48-0.020 2.284-0.058 3.416-4.162 5.174-22.68-2.73-59.328-9.31 21.35-13.858 39.086-12.264 50.276zM549.396 628.542c6.584-10.118 13.666-20.336 21.172-30.532 10.768-14.628 22.932-29.814 35.798-44.31-14.884-1.796-30.236-4.114-45.594-6.902-10.392-1.886-28.51-5.444-49.718-10.734 4.704 9.754 9.342 19.864 13.88 30.26 9.020 20.658 17.316 41.796 24.462 62.218z" />
<glyph unicode="&#xe989;" glyph-name="phone-call" d="M873.984 810.094c-199.978 199.918-524.16 199.87-724.078-0.11s-199.87-524.16 0.11-724.078 524.16-199.87 724.078 0.11c96.012 96.042 149.936 226.292 149.906 362.094-0.028 135.78-53.99 265.988-150.016 361.984zM775.406 246.79c-0.022-0.022-0.044-0.046-0.068-0.068v0.17l-25.942-25.77c-33.55-33.974-82.412-47.952-128.854-36.864-46.79 12.524-91.27 32.46-131.754 59.050-37.612 24.038-72.468 52.138-103.936 83.798-28.954 28.742-54.966 60.302-77.654 94.208-24.816 36.484-44.458 76.228-58.368 118.102-15.946 49.192-2.732 103.17 34.134 139.434l30.378 30.378c8.446 8.484 22.17 8.514 30.652 0.068 0.022-0.022 0.046-0.044 0.068-0.068l95.914-95.914c8.484-8.446 8.514-22.17 0.068-30.652-0.022-0.022-0.044-0.044-0.068-0.068l-56.32-56.32c-16.16-15.984-18.192-41.384-4.778-59.734 20.37-27.956 42.912-54.262 67.414-78.678 27.318-27.436 57.016-52.394 88.746-74.582 18.334-12.788 43.19-10.632 59.050 5.12l54.442 55.296c8.446 8.484 22.17 8.514 30.652 0.068 0.022-0.022 0.044-0.044 0.068-0.068l96.086-96.256c8.486-8.444 8.516-22.166 0.070-30.65z" />
<glyph unicode="&#xe98a;" glyph-name="photo" d="M958.983 846.22h-893.966c-35.905 0-65.017-29.11-65.017-65.015v-666.414c0-35.903 29.112-65.013 65.017-65.013h893.966c35.907 0 65.019 29.11 65.019 65.015v666.412c0 35.905-29.11 65.015-65.019 65.015zM958.983 781.205v-472.843l-128.13 116.492c-19.259 17.505-48.874 16.806-67.274-1.61l-129.677-129.656-255.688 305.412c-19.327 23.081-54.729 23.308-74.346 0.504l-238.852-277.586v459.289h893.966zM682.669 610.539c0 49.38 40.014 89.397 89.394 89.397 49.382 0 89.397-40.017 89.397-89.397s-40.014-89.396-89.397-89.396c-49.378-0.002-89.394 40.016-89.394 89.396z" />
<glyph unicode="&#xe98b;" glyph-name="picture" d="M938.667 806.4h-853.333c-47.104-0.055-85.278-38.229-85.333-85.333v-546.133c0.055-47.104 38.229-85.278 85.333-85.333h853.333c4.789-0.019 9.57 0.399 14.285 1.246 41.065 6.874 71.127 42.451 71.049 84.087v546.133c-0.055 47.106-38.229 85.278-85.333 85.333zM85.333 123.733c-26.528 0.004-48.661 20.269-50.995 46.694l340.275 222.481 346.044-269.175h-635.324zM989.867 174.933c0.028-25.050-18.116-46.423-42.837-50.466-2.761-0.497-5.559-0.742-8.363-0.734h-162.423l-226.116 175.974 202.206 161.69 237.534-142.524v-143.94zM989.867 358.673l-230.144 138.086c-6.118 3.68-13.879 3.162-19.456-1.297l-217.89-174.251-136.448 106.121c-5.749 4.467-13.698 4.798-19.797 0.819l-331.998-217.071v509.986c0 28.277 22.923 51.2 51.2 51.2h853.333c28.277 0 51.2-22.923 51.2-51.2v-362.394zM512 704c-56.555 0-102.4-45.845-102.4-102.4 0.055-56.531 45.869-102.345 102.4-102.4 56.555 0 102.4 45.845 102.4 102.4s-45.845 102.4-102.4 102.4zM512 533.333c-37.702 0-68.267 30.564-68.267 68.267s30.564 68.267 68.267 68.267c37.702 0 68.267-30.564 68.267-68.267s-30.564-68.267-68.267-68.267z" />
<glyph unicode="&#xe98c;" glyph-name="pie-chart" d="M574 960c-16.582 0-30-13.418-30-30v-422c0-16.582 13.418-30 30-30h420c16.582 0 30 13.418 30 30 0 248.144-201.856 452-450 452zM629.576 3.266l-145.576 390.184v414.55c0 16.582-13.418 30-30 30-248.144 0-454-201.856-454-450s205.856-452 454-452c54.316 0 107.49 9.638 158.028 28.624 15.498 5.83 23.35 23.116 17.548 38.642zM994 418h-420c-9.844 0-19.042-4.834-24.668-12.92-5.596-8.086-6.884-18.398-3.428-27.626l147.48-395.282c2.812-7.442 8.438-13.476 15.704-16.758 7.27-3.306 15.462-3.586 22.968-0.762 174.61 65.714 291.944 237.020 291.944 423.348 0 16.582-13.418 30-30 30z" />
<glyph unicode="&#xe98d;" glyph-name="pie-chart-o" d="M469.334 433.962v462.038c0 11.776-9.558 21.334-21.334 21.334-247.040 0-448-220.118-448-490.666s220.118-490.668 490.666-490.668c121.046 0 186.538 21.93 269.568 90.198 8.918 7.338 10.368 20.438 3.286 29.568l-294.186 378.196zM490.666-21.334c-247.040 0-448 200.96-448 448 0 239.104 170.368 435.072 384 447.402v-447.402c0-4.736 1.578-9.344 4.522-13.098l285.696-367.318c-67.37-51.456-123.562-67.584-226.218-67.584zM533.334 448h469.334c11.776 0 21.334 9.558 21.334 21.334-0.002 270.548-220.12 490.666-490.668 490.666-11.776 0-21.334-9.558-21.334-21.334v-469.334c0-11.774 9.558-21.332 21.334-21.332zM554.666 916.822c230.102-10.838 415.318-196.054 426.154-426.154h-426.154v426.154zM1002.666 405.334h-426.666c-8.192 0-15.744-4.736-19.286-12.16s-2.474-16.214 2.688-22.57l277.334-343.338c3.712-4.65 9.174-7.466 15.104-7.894 0.512-0.042 0.982-0.042 1.494-0.042 5.376 0 10.582 2.048 14.55 5.718 99.198 92.542 156.116 223.358 156.116 358.952 0 11.776-9.558 21.334-21.334 21.334zM855.168 72.362l-234.496 290.304h360.15c-5.248-108.458-50.134-212.18-125.654-290.304z" />
<glyph unicode="&#xe98e;" glyph-name="price-tag" d="M917.334 960h-270.636c-51.286 0-99.498-19.968-135.766-56.234l-474.538-474.54c-23.466-23.466-36.394-54.656-36.394-87.978 0-33.152 12.928-64.342 36.394-87.808l281.046-281.046c23.466-23.466 54.656-36.394 87.978-36.394 33.152 0 64.342 12.928 87.808 36.394l474.538 474.538c36.268 36.268 56.236 84.482 56.236 135.766v270.636c0 58.794-47.872 106.666-106.666 106.666zM981.334 582.698c0-39.894-15.53-77.398-43.69-105.558l-474.582-474.58c-30.678-30.678-84.48-30.89-115.414 0l-281.088 281.088c-15.402 15.36-23.894 35.84-23.894 57.77 0 21.76 8.49 42.24 23.894 57.642l474.538 474.54c28.246 28.202 65.706 43.734 105.6 43.734h270.634c35.286 0 64-28.714 64-64v-270.636zM789.334 832c-58.794 0-106.666-47.872-106.666-106.666s47.872-106.666 106.666-106.666 106.666 47.87 106.666 106.666c0 58.794-47.872 106.666-106.666 106.666zM789.334 661.334c-35.286 0-64 28.714-64 64s28.714 64 64 64 64-28.714 64-64c0-35.286-28.716-64-64-64z" />
<glyph unicode="&#xe98f;" glyph-name="price-tags" d="M594.944 46.509c-3.821 0.001-7.28 1.55-9.783 4.054l-418.013 418.013c-2.507 2.505-4.057 5.966-4.057 9.789 0 0.76 0.061 1.506 0.179 2.233l-0.011-0.080 48.239 305.47c0.961 5.931 5.582 10.552 11.433 11.502l0.080 0.011 305.456 48.239c0.647 0.107 1.393 0.169 2.153 0.169 3.823 0 7.284-1.55 9.789-4.057l418.013-418.013c2.503-2.504 4.052-5.963 4.052-9.783s-1.548-7.279-4.052-9.783l-353.709-353.709c-2.5-2.501-5.954-4.050-9.769-4.054h-0.001zM191.696 483.176l403.248-403.262 334.128 334.142-403.235 403.235-288.574-45.554zM353.778 584.566c-38.994 0.027-70.595 31.644-70.595 70.642 0 39.015 31.628 70.642 70.642 70.642s70.642-31.628 70.642-70.642c0-19.516-7.914-37.183-20.707-49.968v0c-12.755-12.773-30.385-20.674-49.86-20.674-0.043 0-0.086 0-0.129 0h0.007zM353.778 698.216c-23.743-0.013-42.986-19.263-42.986-43.008 0-23.753 19.255-43.008 43.008-43.008s43.008 19.255 43.008 43.008c0 11.872-4.81 22.62-12.587 30.402v0c-7.743 7.795-18.468 12.62-30.32 12.62-0.043 0-0.087 0-0.13 0h0.007zM80.356 469.822l-17.533 37.611c-0.82 1.716-1.299 3.729-1.299 5.854 0 2.458 0.641 4.766 1.764 6.766l-0.036-0.070 149.85 270.544 24.216-13.409-146.446-264.372 14.571-31.218zM325.189-36.324c-5.517 0.001-10.279 3.23-12.501 7.901l-0.036 0.084-207.263 444.513 25.088 11.707 201.41-431.976 227.909 106.275 11.707-25.033-240.446-112.086c-1.714-0.849-3.728-1.357-5.858-1.384h-0.009zM319.986 629.276c-9.035 0.085-17.764 1.216-26.128 3.275l0.777-0.162 6.186 26.97c11.402-2.602 32.173-5.355 43.174 5.632 10.78 10.78 10.738 33.335-0.138 61.869-16.844 39.233-40.22 72.623-69.087 100.337l-0.103 0.098c-68.248 68.248-140.316 91.33-162.304 69.341s1.093-94.097 69.341-162.304q6.919-6.836 13.838-13.174l-18.57-20.522q-7.486 6.781-14.834 14.128c-77.201 77.174-107.008 163.785-69.355 201.437s124.264 7.846 201.451-69.341c31.655-30.499 57.169-67.125 74.667-107.999l0.819-2.151c15.222-39.756 12.98-72.178-6.144-91.33-10.552-10.020-24.851-16.184-40.589-16.184-1.055 0-2.104 0.028-3.146 0.082l0.146-0.006z" />
<glyph unicode="&#xe990;" glyph-name="profile-o" d="M504.702 466.735c67.765 0 126.437 24.305 174.39 72.258 47.937 47.945 72.25 106.609 72.25 174.382 0 67.75-24.305 126.422-72.258 174.382-47.953 47.937-106.625 72.242-174.382 72.242-67.773 0-126.437-24.305-174.382-72.25s-72.258-106.617-72.258-174.375c0-67.773 24.312-126.445 72.258-174.39 47.961-47.937 106.633-72.25 174.382-72.25zM372.757 845.321c36.789 36.789 79.945 54.672 131.945 54.672 51.992 0 95.156-17.883 131.953-54.672 36.789-36.797 54.68-79.961 54.68-131.945 0-52-17.891-95.156-54.68-131.953-36.797-36.797-79.961-54.68-131.953-54.68-51.984 0-95.14 17.891-131.945 54.68-36.797 36.789-54.687 79.953-54.687 131.953 0 51.984 17.891 95.148 54.687 131.945zM936.256 172.595c-1.383 19.953-4.18 41.719-8.297 64.703-4.156 23.156-9.508 45.047-15.914 65.055-6.625 20.68-15.617 41.101-26.75 60.672-11.539 20.312-25.102 38-40.32 52.555-15.914 15.227-35.398 27.469-57.93 36.398-22.453 8.883-47.336 13.383-73.953 13.383-10.453 0-20.562-4.289-40.086-17-12.016-7.836-26.070-16.898-41.758-26.922-13.414-8.547-31.586-16.555-54.031-23.805-21.898-7.086-44.133-10.68-66.086-10.68-21.937 0-44.172 3.594-66.086 10.68-22.422 7.242-40.601 15.25-53.992 23.797-15.539 9.93-29.602 18.992-41.797 26.937-19.508 12.711-29.617 17-40.070 17-26.625 0-51.5-4.508-73.945-13.398-22.516-8.914-42.008-21.156-57.937-36.398-15.219-14.562-28.781-32.242-40.312-52.547-11.117-19.57-20.117-39.984-26.742-60.68-6.398-20.008-11.75-41.891-15.906-65.047-4.125-22.953-6.914-44.726-8.297-64.726-1.359-19.555-2.047-39.906-2.047-60.469 0-53.453 16.992-96.726 50.5-128.64 33.094-31.492 76.875-47.461 130.133-47.461h493.062c53.242 0 97.023 15.969 130.125 47.461 33.516 31.891 50.508 75.18 50.508 128.648-0.008 20.633-0.703 40.984-2.070 60.484zM846.444 26.939c-21.867-20.812-50.898-30.93-88.758-30.93h-493.054c-37.867 0-66.898 10.117-88.758 30.922-21.445 20.414-31.867 48.281-31.867 85.172 0 19.187 0.633 38.133 1.898 56.32 1.234 17.844 3.758 37.445 7.5 58.273 3.695 20.57 8.398 39.875 13.992 57.351 5.367 16.758 12.687 33.351 21.766 49.336 8.664 15.234 18.633 28.305 29.633 38.836 10.289 9.852 23.258 17.914 38.539 23.961 14.133 5.594 30.016 8.656 47.258 9.117 2.102-1.117 5.844-3.25 11.906-7.203 12.336-8.039 26.555-17.211 42.273-27.25 17.719-11.297 40.547-21.5 67.82-30.305 27.883-9.016 56.32-13.594 84.547-13.594s56.672 4.578 84.539 13.586c27.297 8.82 50.117 19.016 67.859 30.328 16.086 10.281 29.906 19.187 42.242 27.234 6.062 3.945 9.805 6.086 11.906 7.203 17.25-0.461 33.133-3.523 47.273-9.117 15.273-6.047 28.242-14.117 38.531-23.961 11-10.523 20.969-23.594 29.633-38.844 9.086-15.977 16.414-32.578 21.773-49.32 5.602-17.5 10.312-36.797 14-57.351 3.734-20.867 6.266-40.476 7.5-58.289v-0.016c1.273-18.117 1.914-37.055 1.922-56.297-0.008-36.898-10.43-64.758-31.875-85.164z" />
<glyph unicode="&#xe991;" glyph-name="profile" d="M512 959.978c-282.74 0-512-229.215-512-511.978s229.237-511.978 512-511.978c282.785 0 512 229.215 512 511.978s-229.215 511.978-512 511.978zM512 806.89c93.557 0 169.37-75.835 169.37-169.347 0-93.535-75.813-169.347-169.37-169.347-93.512 0-169.325 75.813-169.325 169.347 0 93.512 75.813 169.347 169.325 169.347zM511.888 69.881c-93.31 0-178.77 33.982-244.688 90.229-16.058 13.696-25.323 33.779-25.323 54.852 0 94.839 76.757 170.742 171.619 170.742h197.055c94.884 0 171.349-75.903 171.349-170.742 0-21.095-9.221-41.134-25.301-54.83-65.895-56.269-151.378-90.251-244.71-90.251z" />
<glyph unicode="&#xe994;" glyph-name="question" d="M554.664 192c0-23.563-19.102-42.664-42.664-42.664s-42.664 19.102-42.664 42.664 19.102 42.664 42.664 42.664 42.664-19.102 42.664-42.664zM512-64c-282.328 0-512 229.672-512 512s229.672 512 512 512 512-229.672 512-512-229.672-512-512-512zM512 896c-247.039 0-448-200.961-448-448s200.961-448 448-448 448 200.961 448 448-200.961 448-448 448zM512 330.664c-17.664 0-32 14.336-32 32v43.094c0 40.617 25.773 77.016 64.086 90.539 50.984 17.961 85.25 72.281 85.25 111.703 0 64.727-52.609 117.336-117.336 117.336s-117.336-52.609-117.336-117.336c0-17.664-14.336-32-32-32s-32 14.336-32 32c0 99.969 81.328 181.336 181.336 181.336s181.336-81.367 181.336-181.336c0-71.172-56.195-146.734-127.961-172.078-12.797-4.477-21.375-16.633-21.375-30.203v-43.055c0-17.664-14.336-32-32-32z" />
<glyph unicode="&#xe99d;" glyph-name="send" d="M373.333 208.555v-197.888c0-13.824 8.875-26.069 22.016-30.421 3.285-1.067 6.656-1.579 9.984-1.579 9.984 0 19.627 4.693 25.771 13.056l115.755 157.525zM1010.56 954.069c-9.813 6.955-22.699 7.893-33.365 2.304l-960-501.333c-11.349-5.931-18.048-18.048-17.109-30.805 0.981-12.8 9.472-23.723 21.547-27.861l266.88-91.221 568.363 485.973-439.808-529.877 447.275-152.875c3.328-1.109 6.827-1.707 10.325-1.707 5.803 0 11.563 1.579 16.64 4.651 8.107 4.949 13.611 13.269 15.019 22.613l117.333 789.333c1.749 11.947-3.285 23.808-13.099 30.805z" />
<glyph unicode="&#xe99e;" glyph-name="send-o" d="M1023.306 856.651c4.992 23.238-17.79 42.832-40.014 34.352l-963.991-367.996c-11.602-4.43-19.276-15.55-19.3-27.968-0.024-12.42 7.606-23.57 19.192-28.044l270.803-104.589v-329.423c0-13.896 9.542-25.972 23.062-29.186 13.43-3.194 27.434 3.196 33.73 15.686l112.001 222.254 273.325-202.844c16.626-12.34 40.524-4.492 46.574 15.338 255.196 836.706 244.164 800.318 244.618 802.42zM785.346 751.216l-469.601-334.435-202.054 78.035zM349.997 367.516l409.332 291.511c-352.225-371.576-333.829-352.019-335.365-354.087-2.282-3.070 3.97 8.896-73.967-145.763zM733.709 112.426l-240.59 178.55 435.018 458.92z" />
<glyph unicode="&#xe99f;" glyph-name="setting-o" d="M657.688 222.534c-10.766 6.47-21.816 12.974-32.866 19.35 2.598 22.14 2.604 44.536 0.012 66.632 11.092 6.4 22.136 12.9 32.85 19.342 18.040 10.84 25.56 33.712 17.488 53.206 0 0 0 0-0.002 0.002l-23.542 56.836c-8.074 19.488-29.554 30.35-49.986 25.26-12.142-3.022-24.548-6.236-36.91-9.552-13.802 17.464-29.64 33.298-47.126 47.108 3.316 12.364 6.532 24.776 9.556 36.922 5.090 20.422-5.77 41.91-25.258 49.984l-56.836 23.542c-19.488 8.076-42.366 0.562-53.21-17.482-6.458-10.748-12.964-21.798-19.348-32.866-22.134 2.598-44.526 2.604-66.632 0.014-6.404 11.102-12.906 22.148-19.34 32.852-10.848 18.040-33.72 25.556-53.21 17.482l-56.836-23.542c-19.484-8.072-30.348-29.562-25.258-49.984 3.030-12.17 6.242-24.578 9.552-36.91-17.462-13.798-33.298-29.64-47.106-47.126-12.392 3.326-24.804 6.538-36.926 9.558-20.428 5.094-41.912-5.776-49.986-25.262l-23.538-56.834c-8.070-19.49-0.552-42.364 17.484-53.204 10.75-6.46 21.8-12.964 32.866-19.35-2.596-22.132-2.602-44.524-0.012-66.632-11.076-6.39-22.12-12.892-32.858-19.344-18.036-10.842-25.554-33.714-17.482-53.206l23.544-56.836c8.072-19.486 29.55-30.352 49.986-25.26 12.128 3.020 24.536 6.232 36.906 9.552 13.802-17.462 29.64-33.294 47.126-47.106-3.32-12.378-6.534-24.79-9.556-36.922-5.090-20.422 5.77-41.912 25.258-49.984l56.838-23.544c5.28-2.186 10.806-3.23 16.274-3.23 14.724 0 29.028 7.558 36.942 20.71 6.41 10.666 12.912 21.712 19.348 32.864 22.13-2.594 44.528-2.598 66.632-0.012 6.358-11.024 12.86-22.068 19.34-32.854 10.844-18.040 33.716-25.554 53.21-17.482l56.836 23.542c19.484 8.072 30.348 29.562 25.258 49.984-3.006 12.066-6.218 24.474-9.552 36.91 17.458 13.798 33.296 29.638 47.108 47.124 12.356-3.314 24.768-6.526 36.92-9.554 20.422-5.094 41.912 5.768 49.986 25.26l23.542 56.838c8.068 19.49 0.55 42.364-17.486 53.204zM610.232 132.332c-11.674 2.924-23.574 6.016-35.406 9.204-16.752 4.506-34.43-1.384-45.038-15.014-12.192-15.66-26.302-29.772-41.936-41.946-13.614-10.604-19.496-28.276-14.986-45.018 3.206-11.908 6.296-23.8 9.202-35.392l-52.244-21.638c-6.214 10.368-12.436 20.962-18.518 31.53-8.654 15.028-25.31 23.356-42.432 21.236-19.662-2.442-39.62-2.44-59.308 0.010-17.17 2.132-33.812-6.196-42.464-21.228-6.156-10.688-12.38-21.288-18.526-31.546l-52.244 21.64c2.922 11.654 6.014 23.552 9.206 35.402 4.51 16.75-1.384 34.43-15.014 45.040-15.66 12.19-29.77 26.298-41.946 41.93-10.6 13.618-28.272 19.498-45.020 14.99-11.846-3.19-23.74-6.282-35.39-9.202l-21.64 52.242c10.32 6.188 20.918 12.41 31.53 18.52 15.030 8.654 23.366 25.306 21.238 42.43-2.446 19.664-2.44 39.62 0.006 59.31 2.136 17.14-6.194 33.81-21.232 42.466-10.608 6.108-21.208 12.332-31.544 18.53l21.64 52.242c11.64-2.918 23.536-6.010 35.404-9.204 16.744-4.512 34.424 1.384 45.040 15.014 12.19 15.66 26.3 29.772 41.93 41.944 13.616 10.602 19.498 28.276 14.988 45.024-3.18 11.808-6.272 23.7-9.202 35.388l52.244 21.638c6.168-10.292 12.392-20.888 18.518-31.53 8.656-15.030 25.326-23.378 42.432-21.236 19.654 2.446 39.608 2.446 59.314-0.010 17.15-2.136 33.81 6.204 42.462 21.234 6.106 10.608 12.332 21.208 18.524 31.542l52.244-21.638c-2.924-11.666-6.016-23.564-9.206-35.406-4.51-16.748 1.384-34.428 15.014-45.038 15.658-12.19 29.77-26.298 41.946-41.93 10.6-13.614 28.266-19.496 45.022-14.988 11.838 3.188 23.73 6.28 35.388 9.202l21.638-52.242c-10.306-6.178-20.902-12.4-31.53-18.52-15.030-8.654-23.368-25.308-21.238-42.432 2.446-19.654 2.442-39.612-0.010-59.314-2.132-17.142 6.202-33.808 21.234-42.462 10.592-6.098 21.192-12.322 31.544-18.526l-21.634-52.248zM483.524 334.978c0 0 0 0-0.002 0.002-32.96 79.578-124.512 117.504-204.102 84.542-79.576-32.964-117.504-124.524-84.54-204.102 15.966-38.552 45.994-68.574 84.542-84.544 19.274-7.982 39.526-11.974 59.778-11.974s40.504 3.992 59.782 11.974c79.576 32.964 117.502 124.522 84.542 204.102zM381.44 173.224c-27.236-11.282-57.234-11.28-84.478 0-27.236 11.282-48.45 32.498-59.734 59.736-23.294 56.228 3.506 120.924 59.736 144.214 13.77 5.704 28.042 8.404 42.094 8.404 43.334 0 84.53-25.68 102.12-68.14 23.29-56.228-3.51-120.922-59.738-144.214zM993.106 758.128c-7.912 1.184-16.038 2.334-24.222 3.426-4.124 13.714-9.632 27.010-16.428 39.638 5.008 6.55 9.944 13.112 14.714 19.558 10.59 14.322 9.058 34.634-3.56 47.246l-31.616 31.612c-12.618 12.62-32.93 14.15-47.248 3.556-6.468-4.786-13.028-9.72-19.558-14.71-12.626 6.796-25.92 12.304-39.638 16.43-1.094 8.184-2.24 16.31-3.424 24.22-2.634 17.612-18.078 30.896-35.922 30.896h-44.712c-17.844 0-33.288-13.284-35.922-30.894-1.182-7.906-2.33-16.034-3.424-24.22-13.718-4.126-27.014-9.634-39.638-16.43-6.526 4.992-13.090 9.928-19.556 14.71-14.322 10.594-34.634 9.064-47.248-3.554l-31.612-31.61c-12.62-12.616-14.154-32.93-3.56-47.254 4.766-6.444 9.702-13.008 14.708-19.556-6.792-12.626-12.302-25.92-16.428-39.638-8.182-1.094-16.31-2.242-24.22-3.426-17.614-2.636-30.898-18.078-30.898-35.924v-44.71c0-17.844 13.28-33.288 30.894-35.924 7.912-1.184 16.038-2.334 24.222-3.426 4.126-13.716 9.634-27.010 16.428-39.638-5.002-6.544-9.938-13.104-14.714-19.558-10.588-14.318-9.058-34.634 3.56-47.244l31.616-31.616c12.616-12.62 32.928-14.148 47.248-3.556 6.468 4.782 13.028 9.72 19.556 14.708 12.63-6.796 25.926-12.304 39.64-16.428 1.090-8.182 2.24-16.31 3.424-24.222 2.636-17.612 18.080-30.896 35.924-30.896h44.712c17.844 0 33.288 13.28 35.922 30.898 1.182 7.912 2.33 16.038 3.424 24.222 13.716 4.122 27.010 9.634 39.638 16.43 6.526-4.992 13.090-9.928 19.556-14.712 14.318-10.594 34.634-9.064 47.248 3.554l31.616 31.612c12.618 12.616 14.15 32.93 3.556 47.252-4.772 6.452-9.708 13.016-14.708 19.554 6.792 12.626 12.302 25.918 16.428 39.638 8.182 1.094 16.31 2.242 24.22 3.426 17.614 2.636 30.898 18.078 30.898 35.924v44.71c-0.002 17.846-13.284 33.29-30.896 35.926zM980.456 683.716c-7.184-1.042-14.514-2.054-21.868-3.012-14.546-1.898-26.454-12.222-30.33-26.298-3.714-13.478-9.104-26.484-16.018-38.656-7.222-12.706-6.108-28.43 2.838-40.064 4.51-5.864 8.984-11.766 13.338-17.598l-22.808-22.81c-5.85 4.366-11.752 8.838-17.604 13.338-11.628 8.95-27.356 10.056-40.064 2.842-12.174-6.916-25.18-12.306-38.65-16.020-14.084-3.88-24.408-15.788-26.3-30.33-0.958-7.354-1.968-14.686-3.012-21.87h-32.26c-1.042 7.184-2.052 14.514-3.012 21.862-1.898 14.548-12.22 26.456-26.3 30.336-13.474 3.712-26.476 9.102-38.654 16.018-12.708 7.22-28.436 6.11-40.062-2.838-5.854-4.502-11.752-8.972-17.606-13.338l-22.808 22.81c4.354 5.838 8.826 11.736 13.342 17.606 8.94 11.63 10.054 27.354 2.834 40.060-6.914 12.172-12.304 25.18-16.018 38.654-3.878 14.080-15.784 24.402-30.33 26.3-7.354 0.96-14.686 1.968-21.87 3.014v32.256c7.184 1.042 14.514 2.054 21.868 3.012 14.546 1.898 26.454 12.222 30.33 26.298 3.714 13.476 9.102 26.482 16.018 38.656 7.222 12.706 6.108 28.432-2.834 40.062-4.518 5.872-8.99 11.772-13.34 17.6l22.808 22.81c5.85-4.366 11.75-8.838 17.6-13.336 11.624-8.95 27.35-10.066 40.068-2.844 12.17 6.914 25.178 12.304 38.65 16.020 14.084 3.88 24.408 15.788 26.3 30.33 0.96 7.354 1.972 14.684 3.014 21.868h32.26c1.042-7.182 2.052-14.512 3.010-21.862 1.898-14.548 12.222-26.456 26.3-30.334 13.476-3.714 26.484-9.106 38.656-16.020 12.71-7.222 28.436-6.1 40.060 2.84 5.854 4.5 11.752 8.972 17.606 13.338l22.808-22.81c-4.35-5.83-8.822-11.732-13.34-17.606-8.942-11.628-10.054-27.352-2.838-40.058 6.914-12.176 12.304-25.184 16.018-38.656 3.878-14.080 15.784-24.402 30.33-26.3 7.354-0.96 14.686-1.97 21.87-3.014v-32.256zM763.848 792.65c-51.17 0-92.802-41.63-92.802-92.802 0-51.174 41.63-92.804 92.802-92.804s92.802 41.63 92.802 92.804c0 51.172-41.63 92.802-92.802 92.802zM763.848 648.298c-28.422 0-51.55 23.126-51.55 51.552s23.126 51.55 51.55 51.55c28.424 0 51.548-23.126 51.55-51.55 0-28.426-23.126-51.552-51.55-51.552z" />
<glyph unicode="&#xe9a0;" glyph-name="setting" d="M673.347 274.505c2.374 24.959 1.657 49.825-1.951 74.103l56.12 25.014c-5.301 27.186-13.639 54.003-25.198 79.956-11.559 25.934-25.916 50.064-42.555 72.207l-56.157-24.995c-15.627 18.903-33.628 36.057-53.764 51.003l22.014 57.353c-22.989 15.461-47.837 28.529-74.36 38.708-26.413 10.142-53.543 17.154-81.134 21.038l-22.032-57.408c-24.959 2.374-49.825 1.657-74.103-1.951l-24.867 55.844c-55.549-10.915-107.454-34.474-152.015-68.139l24.701-55.476c-18.94-15.627-36.094-33.646-51.040-53.764l-57.206 21.94c-15.608-22.934-28.695-47.8-38.892-74.305-10.105-26.505-17.026-53.709-20.909-81.115l57.353-22.014c-2.374-24.959-1.657-49.825 1.951-74.103l-56.12-24.995c5.301-27.204 13.639-54.003 25.198-79.956 11.577-25.952 25.916-50.064 42.573-72.207l56.12 24.995c15.627-18.921 33.628-36.076 53.782-51.021l-22.014-57.39c22.989-15.479 47.837-28.529 74.36-38.708 26.413-10.142 53.543-17.154 81.134-21.038l22.032 57.408c24.959-2.356 49.825-1.638 74.103 1.969l24.867-55.825c55.549 10.915 107.491 34.474 152.034 68.139l-24.719 55.476c18.921 15.627 36.094 33.628 51.040 53.764l57.169-21.94c15.608 22.934 28.695 47.8 38.892 74.287 10.179 26.505 17.081 53.727 20.964 81.152l-57.372 21.995zM520.89 243.822c-32.965-85.919-129.321-128.805-215.258-95.84-85.827 32.947-128.768 129.284-95.822 215.185 32.965 85.901 129.321 128.787 215.203 95.859 85.901-32.947 128.824-129.321 95.877-215.203zM984.077 731.857c0 11.117-1.141 21.995-3.092 32.56l43.015 24.848c-10.418 39.61-31.106 75.078-59.396 103.092l-43.125-24.903c-16.455 14.099-35.524 25.143-56.378 32.505v49.751c-18.995 5.209-38.892 8.191-59.488 8.191s-40.475-3.019-59.488-8.191v-49.77c-20.854-7.362-39.904-18.424-56.378-32.505l-43.144 24.903c-28.253-28.014-48.96-63.482-59.396-103.092l43.033-24.848c-1.951-10.583-3.111-21.425-3.111-32.56s1.16-21.995 3.111-32.56l-43.033-24.848c10.436-39.61 31.143-75.097 59.396-103.092l43.125 24.903c16.473-14.099 35.524-25.143 56.378-32.505v-49.77c19.013-5.19 38.892-8.191 59.488-8.191s40.512 3.019 59.488 8.191v49.77c20.854 7.362 39.923 18.424 56.378 32.505l43.125-24.903c28.29 28.014 48.978 63.482 59.396 103.092l-43.015 24.848c1.969 10.602 3.111 21.443 3.111 32.579zM805.631 648.552c-46.015 0-83.324 37.291-83.324 83.287s37.309 83.306 83.324 83.306c45.96 0 83.269-37.291 83.269-83.287s-37.309-83.306-83.269-83.306z" />
<glyph unicode="&#xe9ac;" glyph-name="star" d="M1021.322 567.236c-6.742 20.735-25.133 35.415-46.805 37.376l-295.599 26.836-116.822 273.505c-8.625 20.094-28.25 33.063-50.095 33.063s-41.477-12.969-50.048-33.063l-116.822-273.505-295.646-26.836c-21.672-2-40.024-16.68-46.805-37.376-6.742-20.735-0.516-43.477 15.875-57.853l223.449-195.933-65.884-290.177c-4.82-21.336 3.461-43.399 21.164-56.196 9.516-6.914 20.696-10.367 31.915-10.367 9.641 0 19.289 2.563 27.907 7.719l254.895 152.409 254.848-152.409c18.696-11.172 42.204-10.149 59.868 2.648 17.703 12.797 25.985 34.86 21.164 56.196l-65.884 290.177 223.449 195.933c16.383 14.375 22.618 37.071 15.875 57.853z" />
<glyph unicode="&#xe9ad;" glyph-name="star-o" d="M229.193-43.294c-11.219 0-22.36 3.5-31.868 10.375-17.711 12.836-25.985 34.899-21.165 56.189l65.877 290.187-223.412 195.927c-16.422 14.336-22.696 37.040-15.954 57.814 6.742 20.735 25.087 35.415 46.806 37.423l295.601 26.837 116.87 273.499c8.617 20.094 28.243 33.071 50.048 33.071s41.431-12.977 50.048-33.024l116.87-273.546 295.554-26.837c21.766-1.961 40.11-16.688 46.853-37.423s0.508-43.478-15.914-57.814l-223.412-195.888 65.877-290.179c4.828-21.336-3.453-43.4-21.157-56.197-17.665-12.797-41.22-13.782-59.822-2.602l-254.897 152.324-254.897-152.41c-8.617-5.117-18.219-7.727-27.907-7.727zM511.998 182.462c9.688 0 19.282-2.602 27.907-7.719l240.561-143.879-62.173 273.89c-4.438 19.493 2.18 39.845 17.243 53.033l210.951 185.005-279.093 25.344c-20.094 1.836-37.376 14.469-45.228 32.985l-110.167 258.1-110.3-258.139c-7.766-18.391-25.048-31.024-45.095-32.86l-279.132-25.344 210.943-185.005c15.11-13.227 21.719-33.54 17.243-53.079l-62.127-273.882 240.561 143.832c8.617 5.117 18.219 7.719 27.907 7.719zM342.821 626.169s0-0.047-0.047-0.086zM681.088 626.294l0.047-0.086c0 0.047 0 0.047-0.047 0.086z" />
<glyph unicode="&#xe9ae;" glyph-name="supermarket" d="M888.14 824.108h-283.452c-27.226 0-52.818-10.602-72.068-29.854l-400.876-400.878c-19.252-19.25-29.854-44.844-29.854-72.068s10.602-52.818 29.854-72.068l283.448-283.44c19.868-19.868 45.968-29.8 72.066-29.8s52.198 9.934 72.066 29.804l400.88 400.88c19.252 19.252 29.854 44.844 29.854 72.068v283.44c0 56.196-45.72 101.916-101.918 101.916zM752.248 484.38c-56.198 0-101.918 45.72-101.918 101.918s45.72 101.918 101.918 101.918 101.918-45.72 101.918-101.918-45.72-101.918-101.918-101.918zM820.194 960h-283.452c-27.226 0-52.818-10.602-72.068-29.854l-400.876-400.878c-19.252-19.25-29.854-44.844-29.854-72.068 0-21.294 6.512-41.576 18.552-58.62 7.998 15.62 18.438 30.080 31.206 42.844l400.874 400.878c32.082 32.082 74.738 49.752 120.112 49.752h283.448c9.884 0 19.56-0.896 28.986-2.526-13.286 40.852-51.704 70.472-96.928 70.472z" />
<glyph unicode="&#xe9af;" glyph-name="supermarket-o" d="M922.112 818.266v39.816c0 56.198-45.72 101.918-101.918 101.918h-283.452c-27.226 0-52.818-10.602-72.068-29.854l-400.876-400.878c-19.252-19.25-29.854-44.844-29.854-72.068s10.602-52.818 29.854-72.068l40.734-40.734c-1.726-7.488-2.64-15.218-2.64-23.090 0-27.224 10.602-52.818 29.854-72.068l283.446-283.44c19.868-19.866 45.968-29.8 72.066-29.8s52.198 9.934 72.066 29.804l400.88 400.88c19.252 19.252 29.854 44.844 29.854 72.068v283.44c0 44.288-28.406 82.050-67.946 96.074zM111.842 433.178c-6.416 6.416-9.952 14.948-9.952 24.024s3.536 17.604 9.952 24.024l400.878 400.878c6.418 6.414 14.948 9.95 24.024 9.95h283.448c18.732 0 33.972-15.24 33.972-33.972v-33.972h-249.476c-27.226 0-52.818-10.602-72.068-29.854l-390.924-390.928-29.854 29.85zM912.16 414.728l-400.88-400.88c-13.25-13.248-34.8-13.244-48.044 0l-283.448 283.44c-6.416 6.416-9.952 14.948-9.952 24.024s3.536 17.604 9.952 24.024l400.878 400.88c6.418 6.414 14.948 9.95 24.024 9.95h283.448c18.732 0 33.972-15.24 33.972-33.972v-283.44h0.002c0-9.076-3.536-17.608-9.952-24.026zM752.248 688.218c-56.198 0-101.918-45.72-101.918-101.918s45.72-101.918 101.918-101.918 101.918 45.72 101.918 101.918-45.72 101.918-101.918 101.918zM752.248 552.326c-18.732 0-33.972 15.24-33.972 33.972s15.24 33.972 33.972 33.972c18.732 0 33.972-15.24 33.972-33.972s-15.24-33.972-33.972-33.972z" />
<glyph unicode="&#xe9b0;" glyph-name="trash" d="M128 640v-640c0-35.2 28.8-64 64-64h576c35.2 0 64 28.8 64 64v640h-704zM320 64h-64v448h64v-448zM448 64h-64v448h64v-448zM576 64h-64v448h64v-448zM704 64h-64v448h64v-448zM848 832h-208v80c0 26.4-21.6 48-48 48h-224c-26.4 0-48-21.6-48-48v-80h-208c-26.4 0-48-21.6-48-48v-80h832v80c0 26.4-21.6 48-48 48zM576 832h-192v63.198h192v-63.198z" />
<glyph unicode="&#xe9b5;" glyph-name="tag" d="M896.748 960c-58.478 0-109.367-40.532-123.398-96.191h-287.455c-21.142 0-41.021-8.234-55.973-23.184l-411.461-411.463c-24.613-24.613-24.613-64.66 0-89.273l385.429-385.429c12.306-12.306 28.472-18.459 44.636-18.459s32.33 6.152 44.636 18.459l411.463 411.463c14.95 14.952 23.184 34.829 23.184 55.973v260.794c12.362 6.357 24.054 13.743 34.727 22.248 40.21 32.037 61.464 76.235 61.464 127.809 0 70.167-57.085 127.252-127.252 127.252zM897.75 421.894c0-13.114-5.106-25.442-14.38-34.717l-411.463-411.463c-12.894-12.894-33.869-12.894-46.763 0l-385.429 385.429c-12.892 12.894-12.892 33.869 0 46.763l411.463 411.463c9.274 9.274 21.603 14.38 34.717 14.38h378.79c18.232 0 33.065-14.833 33.065-33.065v-98.744c-26.22-10.797-55.099-17.016-82.85-19.246-5.052 38.811-38.304 68.892-78.469 68.892-43.646 0-79.157-35.51-79.157-79.157s35.51-79.157 79.157-79.157c36.705 0 67.646 25.114 76.564 59.059 28.122 1.866 57.348 7.459 84.756 17.33v-247.769zM733.072 657.779c14.545-3.333 30.775-5.349 47.907-5.952-7.803-16.807-24.833-28.496-44.55-28.496-27.072 0-49.097 22.026-49.097 49.097s22.026 49.097 49.097 49.097c23.855 0 43.781-17.104 48.183-39.689-16.194 0.391-31.438 2.174-44.825 5.242-8.088 1.858-16.154-3.2-18.008-11.292-1.854-8.090 3.202-16.152 11.292-18.008zM943.803 728.447c-5.056-4.028-10.411-7.765-15.994-11.238v83.475c0 34.807-28.318 63.125-63.125 63.125h-60.047c13.11 38.691 50.045 66.131 92.11 66.131 53.592 0 97.192-43.6 97.192-97.192 0-42.701-16.869-77.792-50.137-104.301z" />
<glyph unicode="&#xe9b7;" glyph-name="user" d="M504.701 466.736c67.765 0 126.445 24.305 174.39 72.258 47.945 47.945 72.25 106.609 72.25 174.382 0 67.75-24.305 126.421-72.258 174.382-47.953 47.937-106.625 72.242-174.382 72.242-67.773 0-126.437-24.305-174.382-72.25s-72.258-106.617-72.258-174.374c0-67.773 24.312-126.445 72.265-174.39 47.953-47.937 106.625-72.25 174.374-72.25zM936.254 172.597c-1.383 19.953-4.18 41.719-8.297 64.703-4.156 23.156-9.508 45.047-15.914 65.054-6.617 20.68-15.617 41.101-26.742 60.672-11.547 20.312-25.109 38-40.328 52.554-15.914 15.227-35.398 27.469-57.929 36.398-22.453 8.883-47.336 13.383-73.953 13.383-10.453 0-20.562-4.289-40.086-17-12.016-7.836-26.070-16.898-41.758-26.922-13.414-8.547-31.586-16.555-54.031-23.805-21.898-7.086-44.133-10.68-66.078-10.68s-44.172 3.594-66.093 10.68c-22.422 7.242-40.594 15.25-53.992 23.797-15.539 9.93-29.601 18.992-41.797 26.937-19.5 12.711-29.617 17-40.070 17-26.625 0-51.5-4.508-73.945-13.398-22.516-8.914-42.008-21.156-57.937-36.398-15.211-14.562-28.781-32.242-40.312-52.547-11.117-19.57-20.117-39.984-26.742-60.679-6.398-20.008-11.75-41.89-15.906-65.047-4.117-22.953-6.914-44.726-8.297-64.726-1.359-19.594-2.047-39.93-2.047-60.469 0-53.453 16.992-96.726 50.5-128.64 33.094-31.492 76.883-47.469 130.132-47.469h493.061c53.25 0 97.023 15.969 130.124 47.469 33.515 31.89 50.508 75.172 50.508 128.648-0.008 20.633-0.703 40.984-2.070 60.484z" />
<glyph unicode="&#xe9b9;" glyph-name="wallet" d="M977.447 443.705v143.921c0 48.802-37.854 88.491-85.681 92.34l-133.656 233.451c-12.386 21.591-32.386 37.023-56.318 43.431-23.819 6.364-48.726 3.022-70.044-9.386l-458.181-266.745h-80.471c-51.34 0-93.090-41.748-93.090-93.090v-558.536c0-51.34 41.748-93.090 93.090-93.090h791.261c51.34 0 93.090 41.748 93.090 93.090v143.921c27.030 9.639 46.544 35.229 46.544 65.53v139.634c0 30.301-19.514 55.891-46.544 65.53zM837.682 680.717h-202.843l152.134 88.572 50.709-88.572zM763.849 809.68l-221.514-128.963h-91.881l290.421 169.088 22.974-40.125zM655.178 907.236c10.523 6.159 22.817 7.796 34.568 4.658 11.886-3.181 21.796-10.863 27.955-21.613l0.048-0.085-359.798-209.479h-91.877l389.103 226.519zM930.901 29.090c0-25.658-20.886-46.544-46.544-46.544h-791.261c-25.658 0-46.544 20.886-46.544 46.544v558.536c0 25.658 20.886 46.544 46.544 46.544h791.261c25.658 0 46.544-20.886 46.544-46.544v-139.634h-139.634c-76.999 0-139.634-62.635-139.634-139.634s62.635-139.634 139.634-139.634h139.634v-139.634zM977.447 238.541c0-12.84-10.431-23.273-23.273-23.273h-162.907c-51.34 0-93.090 41.748-93.090 93.090 0 51.34 41.748 93.090 93.090 93.090h162.907c12.84 0 23.273-10.431 23.273-23.273v-139.634zM791.267 354.902c-25.658 0-46.544-20.886-46.544-46.544s20.886-46.544 46.544-46.544c25.658 0 46.544 20.886 46.544 46.544 0.002 25.658-20.884 46.544-46.544 46.544z" />
<glyph unicode="&#xe9ba;" glyph-name="zoom-in" d="M1012.282 4.298l-288.904 288.904c131.628 160.15 122.672 397.888-26.902 547.46-159.118 159.118-418.020 159.118-577.138 0s-159.118-418.020 0-577.138c149.532-149.532 387.24-158.586 547.46-26.902l288.904-288.904c15.624-15.624 40.954-15.624 56.578 0 15.626 15.626 15.626 40.956 0.002 56.58zM639.898 320.104c-127.92-127.92-336.060-127.918-463.98 0-127.92 127.92-127.92 336.060 0 463.98 127.916 127.914 336.056 127.924 463.98 0 127.92-127.92 127.92-336.060 0-463.98zM603.794 592.102h-155.88v155.88c0 22.096-17.912 40.008-40.008 40.008s-40.008-17.912-40.008-40.008v-155.88h-155.88c-22.096 0-40.008-17.912-40.008-40.008s17.912-40.008 40.008-40.008h155.88v-155.88c0-22.096 17.912-40.008 40.008-40.008s40.008 17.912 40.008 40.008v155.88h155.88c22.096 0 40.008 17.912 40.008 40.008s-17.912 40.008-40.008 40.008z" />
<glyph unicode="&#xe9bb;" glyph-name="zoom" d="M734.846 701.813h-222.848c-17.104 0-30.966-13.863-30.966-30.966s13.863-30.966 30.966-30.966h191.882v-191.882c0-17.104 13.863-30.966 30.966-30.966s30.966 13.863 30.966 30.966v222.848c0 17.104-13.863 30.966-30.966 30.966zM512.002 256.12h-191.882v191.882c0 17.104-13.863 30.966-30.966 30.966s-30.966-13.863-30.966-30.966v-222.848c0-17.104 13.863-30.966 30.966-30.966h222.848c17.104 0 30.966 13.863 30.966 30.966s-13.866 30.966-30.966 30.966zM512.002 960c-282.321 0-512.002-229.681-512.002-512.002s229.681-512.002 512.002-512.002 512.002 229.681 512.002 512.002-229.685 512.002-512.002 512.002zM512.002-2.067c-248.168 0-450.069 201.897-450.069 450.066s201.901 450.069 450.069 450.069 450.069-201.901 450.069-450.069-201.901-450.066-450.069-450.066z" />
<glyph unicode="&#xe9c5;" glyph-name="download" d="M896 448h-160l-224-224-224 224h-160l-128-256v-64h1024v64l-128 256zM0 64h1024v-64h-1024v64zM576 640v256h-128v-256h-224l288-288 288 288h-224z" />
</font>
</defs>
</svg>
